Torrent’s details
Name Diamond League 2021 Leg 2 Doha | FOX
Description Format                                   : Matroska
Format version                           : Version 4
File size                                : 2.89 GiB
Duration                                 : 1 h 59 min
Overall bit rate mode                    : Variable
Overall bit rate                         : 3 470 kb/s
Encoded date                             : UTC 2021-05-30 10:32:00
Writing application                      : mkvmerge v56.1.0 ('My Friend'wink.gif 64-bit
Writing library                          : libebml v1.4.2 + libmatroska v1.6.4

Video
ID                                       : 1
Format                                   : AVC
Format/Info                              : Advanced Video Codec
Format profile                           : High@L3.2
Format settings                          : CABAC / 2 Ref Frames
Format settings, CABAC                   : Yes
Format settings, Reference frames        : 2 frames
Codec ID                                 : V_MPEG4/ISO/AVC
Duration                                 : 1 h 59 min
Bit rate mode                            : Variable
Bit rate                                 : 3 213 kb/s
Maximum bit rate                         : 4 000 kb/s
Width                                    : 1 280 pixels
Height                                   : 720 pixels
Display aspect ratio                     : 16:9
Frame rate mode                          : Constant
Frame rate                               : 50.000 FPS
Color space                              : YUV
Chroma subsampling                       : 4:2:0
Bit depth                                : 8 bits
Scan type                                : Progressive
Bits/(Pixel*Frame)                       : 0.070
Stream size                              : 2.67 GiB (93%)
Default                                  : Yes
Forced                                   : No

Audio
ID                                       : 2
Format                                   : AAC LC
Format/Info                              : Advanced Audio Codec Low Complexity
Codec ID                                 : A_AAC-2
Duration                                 : 1 h 59 min
Bit rate                                 : 253 kb/s
Channel(s)                               : 2 channels
Channel layout                           : L R
Sampling rate                            : 48.0 kHz
Frame rate                               : 46.875 FPS (1024 SPF)
Compression mode                         : Lossy
Delay relative to video                  : 9 ms
Stream size                              : 216 MiB (7%)
Language                                 : English
Default                                  : Yes
Forced                                   : No
Category Athletics
Rating N/A
Size 2.89 GB
Show/Hide Files
1 file