Torrent’s details
Name Bundesliga 2021 VfB Stuttgart vs SpVgg Greuther F├╝rth 2160p UHDTV H.265 | GER
Image
Description
Quote:
General
Unique ID                                : 338065048141678536994477533514522950390 (0xFE54F5BE68FA71458BCFE187CCC3FAF6)
Complete name                            : Fussball.1.Bundesliga.2021-2022.01.Spieltag.VfB.Stuttgart.vs.SpVgg.Greuther.Fuerth.German.2160p.UHDTV.HEVC-SPORTY.mkv
Format                                   : Matroska
Format version                           : Version 4
File size                                : 17.0 GiB
Duration                                 : 1 h 46 min
Overall bit rate                         : 22.9 Mb/s
Encoded date                             : UTC 2021-08-20 05:45:31
Writing application                      : TMPGEnc MPEG Smart Renderer 5 Version 5.0.24.30
Writing library                          : TMPGEnc MPEG Smart Renderer 5 Version 5.0.24.30

Video
ID                                       : 1
Format                                   : HEVC
Format/Info                              : High Efficiency Video Coding
Format profile                           : Main 10@L5.1@Main
Codec ID                                 : V_MPEGH/ISO/HEVC
Duration                                 : 1 h 46 min
Bit rate                                 : 21.9 Mb/s
Width                                    : 3 840 pixels
Height                                   : 2 160 pixels
Display aspect ratio                     : 16:9
Frame rate mode                          : Constant
Frame rate                               : 50.000 FPS
Standard                                 : Component
Color space                              : YUV
Chroma subsampling                       : 4:2:0
Bit depth                                : 10 bits
Bits/(Pixel*Frame)                       : 0.053
Stream size                              : 16.3 GiB (96%)
Default                                  : Yes
Forced                                   : No
Color range                              : Limited
Color primaries                          : BT.2020
Transfer characteristics                 : BT.2020 (10-bit)
Matrix coefficients                      : BT.2020 non-constant

Audio #1
ID                                       : 2
Format                                   : AC-3
Format/Info                              : Audio Coding 3
Commercial name                          : Dolby Digital
Codec ID                                 : A_AC3
Duration                                 : 1 h 46 min
Bit rate mode                            : Constant
Bit rate                                 : 384 kb/s
Channel(s)                               : 6 channels
Channel layout                           : L R C LFE Ls Rs
Sampling rate                            : 48.0 kHz
Frame rate                               : 31.250 FPS (1536 SPF)
Compression mode                         : Lossy
Stream size                              : 293 MiB (2%)
Language                                 : German
Service kind                             : Complete Main
Default                                  : Yes
Forced                                   : No

Audio #2
ID                                       : 3
Format                                   : AC-3
Format/Info                              : Audio Coding 3
Commercial name                          : Dolby Digital
Codec ID                                 : A_AC3
Duration                                 : 1 h 46 min
Bit rate mode                            : Constant
Bit rate                                 : 128 kb/s
Channel(s)                               : 2 channels
Channel layout                           : L R
Sampling rate                            : 48.0 kHz
Frame rate                               : 31.250 FPS (1536 SPF)
Compression mode                         : Lossy
Stream size                              : 97.7 MiB (1%)
Language                                 : Stadium
Service kind                             : Complete Main
Default                                  : No
Forced                                   : No



Category European Soccer
Rating N/A
Size 17.03 GB
Show/Hide Files
1 file