Torrent’s details
Name EPL 2021 Liverpool vs Newcastle 16 12 1080pEN60fps BTSport
Description General
Complete name                            : Liverpool vs Newcastle 16 Dec 2021 1080p BT Sportlivnewc1sth121621.mp4
Format                                   : MPEG-4
Format profile                           : Base Media
Codec ID                                 : isom (isom/iso2/avc1/mp41)
File size                                : 2.34 GiB
Duration                                 : 1 h 48 min
Overall bit rate mode                    : Variable
Overall bit rate                         : 3 098 kb/s
Movie name                               : index.m3u8
Writing application                      : Lavf57.48.100
Comment                                  : Recorded and Tagged by Jaksta Media Recorder 7 (www.jaksta.com)

Video
ID                                       : 1
Format                                   : AVC
Format/Info                              : Advanced Video Codec
Format profile                           : High@L4
Format settings                          : CABAC / 1 Ref Frames
Format settings, CABAC                   : Yes
Format settings, Reference frames        : 1 frame
Codec ID                                 : avc1
Codec ID/Info                            : Advanced Video Coding
Duration                                 : 1 h 48 min
Bit rate mode                            : Variable
Bit rate                                 : 2 966 kb/s
Maximum bit rate                         : 6 000 kb/s
Width                                    : 1 920 pixels
Height                                   : 1 080 pixels
Display aspect ratio                     : 16:9
Frame rate mode                          : Variable
Frame rate                               : 25.000 FPS
Minimum frame rate                       : 25.000 FPS
Maximum frame rate                       : 12 800.000 FPS
Color space                              : YUV
Chroma subsampling                       : 4:2:0
Bit depth                                : 8 bits
Scan type                                : Progressive
Bits/(Pixel*Frame)                       : 0.057
Stream size                              : 2.24 GiB (96%)
Codec configuration box                  : avcC

Audio
ID                                       : 2
Format                                   : AAC LC
Format/Info                              : Advanced Audio Codec Low Complexity
Codec ID                                 : mp4a-40-2
Duration                                 : 1 h 48 min
Bit rate mode                            : Variable
Bit rate                                 : 128 kb/s
Maximum bit rate                         : 131 kb/s
Channel(s)                               : 2 channels
Channel layout                           : L R
Sampling rate                            : 48.0 kHz
Frame rate                               : 46.875 FPS (1024 SPF)
Compression mode                         : Lossy
Stream size                              : 99.2 MiB (4%)
Default                                  : Yes
Alternate group                          : 1



Category EPL
Rating N/A
Size 3.75 GB
Show/Hide Files
2 files