Torrent’s details
Name Copa del Rey 2023 01 04 Intercity vs Barcelona ENGLISH 1080p HDTV H265
Image
Description



Code
General
Complete name: Copa del Rey 2023 01 04 Intercity vs Barcelona ENGLISH 1080p HDTV H265.mkv
Format: Matroska
Format version: Version 4
File size: 6.17 GiB
Duration: 2 h 28 min
Overall bit rate: 5 939 kb/s
Encoded date: UTC 2023-01-05 08:00:20
Writing application: mkvmerge v73.0.0 ('25 or 6 to 4'wink.gif 64-bit
Writing library: libebml v1.4.4 + libmatroska v1.7.1 / Lavf59.27.100

Video
ID: 1
Format: HEVC
Format/Info: High Efficiency Video Coding
Format profile: Main@L4.1@Main
Codec ID: V_MPEGH/ISO/HEVC
Duration: 2 h 28 min
Bit rate: 5 804 kb/s
Width: 1 920 pixels
Height: 1 080 pixels
Display aspect ratio: 16:9
Frame rate mode: Constant
Frame rate: 50.000 FPS
Color space: YUV
Chroma subsampling: 4:2:0
Bit depth: 8 bits
Bits/(Pixel*Frame): 0.056
Stream size: 6.03 GiB (98%)
Writing library: Lavc59.37.100 hevc_nvenc
Default: Yes
Forced: No
Color range: Limited
Color primaries: BT.709
Transfer characteristics: BT.709
Matrix coefficients: BT.709

Audio
ID: 2
Format: AAC LC
Format/Info: Advanced Audio Codec Low Complexity
Codec ID: A_AAC-2
Duration: 2 h 28 min
Bit rate: 132 kb/s
Channel(s): 2 channels
Channel layout: L R
Sampling rate: 48.0 kHz
Frame rate: 46.875 FPS (1024 SPF)
Compression mode: Lossy
Delay relative to video: -161 ms
Stream size: 140 MiB (2%)
Writing library: Lavc59.37.100 aac
Language: English
Default: Yes
Forced: No

Category European Soccer
Rating N/A
Size 6.17 GB
Show/Hide Files
1 file