Torrent’s details
Name NBA.Playoffs.WR1.G2.Clippers @ Warriors.1080p60fps.NBCSBA
Image
Description








Format                         : Matroska
Format version                 : Version 4 / Version 2
File size                      : 9.12 GiB
Duration                       : 2 h 8 min
Overall bit rate               : 10.1 Mb/s
Encoded date                   : UTC 2019-04-16 05:39:18
Writing application            : mkvmerge v25.0.0 ('Prog Noir'wink.gif 64-bit
Writing library                : libebml v1.3.6 + libmatroska v1.4.9

Video
ID                             : 1
Format                         : AVC
Format/Info                    : Advanced Video Codec
Format profile                 : High@L4
Format settings, CABAC         : No
Format settings, RefFrames     : 2 frames
Format settings, GOP           : M=3, N=15
Codec ID                       : V_MPEG4/ISO/AVC
Duration                       : 2 h 8 min
Bit rate                       : 9 997 kb/s
Width                          : 1 920 pixels
Height                         : 1 080 pixels
Display aspect ratio           : 16:9
Frame rate mode                : Constant
Frame rate                     : 59.940 FPS
Color space                    : YUV
Chroma subsampling             : 4:2:0
Bit depth                      : 8 bits
Scan type                      : Progressive
Bits/(Pixel*Frame)             : 0.080
Stream size                    : 9.00 GiB (99%)
Default                        : Yes
Forced                         : No

Audio
ID                             : 2
Format                         : AAC
Format/Info                    : Advanced Audio Codec
Format profile                 : LC
Codec ID                       : A_AAC
Duration                       : 2 h 8 min
Bit rate                       : 128 kb/s
Channel(s)                     : 2 channels
Channel positions              : Front: L R
Sampling rate                  : 48.0 kHz
Frame rate                     : 46.875 FPS (1024 SPF)
Compression mode               : Lossy
Stream size                    : 118 MiB (1%)
Language                       : English
Default                        : Yes
Forced                         : No
Category NBA/WNBA
Rating
Size 9.12 GB
Show/Hide Files
1 file