Torrent’s details
Name Draft Academy S02 720p WEB-DL x264-DT24
Image
Description General
Complete name: Draft.Academy.S02E01.720p.WEB-DL.x264-DT24.mkv
Format: Matroska
Format version: Version 4
File size: 1.07 GiB
Duration: 22 min 11 s
Overall bit rate: 6 903 kb/s
Movie name: It Starts Now
Encoded date: UTC 2019-05-16 20:51:40
Writing application: mkvmerge v26.0.0 ('In The Game'wink.gif 64-bit
Writing library: libebml v1.3.6 + libmatroska v1.4.9

Video
ID: 2
Format: AVC
Format/Info: Advanced Video Codec
Format profile: High@L4
Format settings: CABAC / 4 Ref Frames
Format settings, CABAC: Yes
Format settings, Reference frames: 4 frames
Codec ID: V_MPEG4/ISO/AVC
Duration: 22 min 11 s
Bit rate mode: Constant
Bit rate: 6 872 kb/s
Width: 1 280 pixels
Height: 720 pixels
Display aspect ratio: 16:9
Frame rate mode: Constant
Frame rate: 59.940 (60000/1001) FPS
Color space: YUV
Chroma subsampling: 4:2:0
Bit depth: 8 bits
Scan type: Progressive
Bits/(Pixel*Frame): 0.124
Stream size: 1.05 GiB (98%)
Default: Yes
Forced: No

Audio
ID: 1
Format: AAC LC
Format/Info: Advanced Audio Codec Low Complexity
Codec ID: A_AAC-2
Duration: 22 min 11 s
Bit rate: 125 kb/s
Channel(s): 2 channels
Channel layout: L R
Sampling rate: 48.0 kHz
Frame rate: 46.875 FPS (1024 SPF)
Compression mode: Lossy
Delay relative to video: 10 ms
Stream size: 19.9 MiB (2%)
Language: English
Default: Yes
Forced: No
Category Documentary
Rating N/A
Size 9.27 GB
Show/Hide Files
8 files