Torrent’s details
Name Detail: From the Mind of Allen Iverson S01E01 2001 NBA Finals (Game 3) 720p ESPN WEB-DL AAC2.0 H.264-KiMCHi
Image
Description
Quote:
This release is sourced from ESPN and is not transcoded, just remuxed from the direct stream.



General
Unique ID                                : 156387158132460065773531271512079866145 (0x75A7123211AB854D80C2FF2C80621921)
Complete name                            : Detail.From.the.Mind.of.Allen.Iverson.S01E01.2001.NBA.Finals.Game.3.720p.ESPN.WEB-DL.AAC2.0.H.264-KiMCHi.mkv
Format                                   : Matroska
Format version                           : Version 4
File size                                : 1.11 GiB
Duration                                 : 22 min 51 s
Overall bit rate                         : 6 936 kb/s
Movie name                               : Detail: From the Mind of Allen Iverson - 2001 NBA Finals (Game 3) [S01E01] 720p ESPN WEB-DL - KiMCHi
Encoded date                             : UTC 2021-05-22 21:35:44
Writing application                      : mkvmerge v38.0.0 ('The Silent Type'wink.gif 64-bit
Writing library                          : libebml v1.3.9 + libmatroska v1.5.2

Video
ID                                       : 1
Format                                   : AVC
Format/Info                              : Advanced Video Codec
Format profile                           : High@L4
Format settings                          : CABAC / 4 Ref Frames
Format settings, CABAC                   : Yes
Format settings, Reference frames        : 4 frames
Codec ID                                 : V_MPEG4/ISO/AVC
Duration                                 : 22 min 51 s
Bit rate mode                            : Constant
Bit rate                                 : 6 872 kb/s
Width                                    : 1 280 pixels
Height                                   : 720 pixels
Display aspect ratio                     : 16:9
Frame rate mode                          : Constant
Frame rate                               : 59.940 (60000/1001) FPS
Color space                              : YUV
Chroma subsampling                       : 4:2:0
Bit depth                                : 8 bits
Scan type                                : Progressive
Bits/(Pixel*Frame)                       : 0.124
Stream size                              : 1.09 GiB (98%)
Default                                  : Yes
Forced                                   : No

Audio
ID                                       : 2
Format                                   : AAC LC
Format/Info                              : Advanced Audio Codec Low Complexity
Codec ID                                 : A_AAC-2
Duration                                 : 22 min 51 s
Bit rate                                 : 125 kb/s
Channel(s)                               : 2 channels
Channel layout                           : L R
Sampling rate                            : 48.0 kHz
Frame rate                               : 46.875 FPS (1024 SPF)
Compression mode                         : Lossy
Delay relative to video                  : 18 ms
Stream size                              : 20.5 MiB (2%)
Language                                 : English
Default                                  : Yes
Forced                                   : No
Category NBA/WNBA
Rating N/A
Size 1.11 GB
Show/Hide Files
1 file