Torrent’s details
Name Winter Olympics PyeongChang 2018/02/10 Day 2 Part 1 720p 50fps ENG | BBC One
Description Winter Olympics PyeongChang 2018/02/10 Day 2 Part 1 coverage (2h 8mn) from BBC One.


Day 2, Part 1
Winter Olympics, Pyeongchang 2018

Radzi Chinyanganya hosts live coverage of day two of the 2018 Winter Olympics from Pyeongchang, South Korea.

Men's downhill skiing has been delayed due to bad weather.


BBC WEBSITE: http://www.bbc.co.uk/programmes/b09rzy1h




General
Unique ID : 52662657647044769528443070005881082316 (0x279E757C8650E12AE9658FCDE80C11CC)
Complete name : PyeongChang.Olympics.2018.02.10.Day.2.Part.1.720p.iP.WEB-DL.AAC2.0.H.264.NTb.mkv
Format : Matroska
Format version : Version 4 / Version 2
File size : 4.76 GiB
Duration : 2h 8mn
Overall bit rate : 5 305 Kbps
Encoded date : UTC 2018-02-11 14:56:53
Writing application : mkvmerge v8.8.0 ('Wind at my back' ) 64bit
Writing library : libebml v1.3.3 + libmatroska v1.4.4

Video
ID : 2
Format : AVC
Format/Info : Advanced Video Codec
Format profile : High@L3.2
Format settings, CABAC : Yes
Format settings, ReFrames : 4 frames
Codec ID : V_MPEG4/ISO/AVC
Duration : 2h 8mn
Bit rate : 4 983 Kbps
Width : 1 280 pixels
Height : 720 pixels
Display aspect ratio : 16:9
Frame rate mode : Constant
Frame rate : 50.000 fps
Standard : Component
Color space : YUV
Chroma subsampling : 4:2:0
Bit depth : 8 bits
Scan type : Progressive
Bits/(Pixel*Frame) : 0.108
Stream size : 4.48 GiB (94%)
Default : Yes
Forced : No
Color range : Limited
Color primaries : BT.709
Transfer characteristics : BT.709
Matrix coefficients : BT.709

Audio
ID : 1
Format : AAC
Format/Info : Advanced Audio Codec
Format profile : LC
Codec ID : A_AAC
Duration : 2h 8mn
Bit rate : 317 Kbps
Channel(s) : 2 channels
Channel positions : Front: L R
Sampling rate : 48.0 KHz
Frame rate : 46.875 fps (1024 spf)
Compression mode : Lossy
Delay relative to video : 20ms
Stream size : 292 MiB (6%)
Language : English
Default : Yes
Forced : No

Text
ID : 3
Format : UTF-8
Codec ID : S_TEXT/UTF8
Codec ID/Info : UTF-8 Plain Text
Duration : 2h 7mn
Bit rate : 175 bps
Count of elements : 1287
Stream size : 164 KiB (0%)
Default : No
Forced : No


Respect to NTb! cool2.gif
Category Olympic games
Rating N/A
Size 4.76 GB
Show/Hide Files
1 file