Torrent’s details
Name EURO.Qualifiers.2023.06.16.Denmark.vs.Northern.Ireland.PREMIER.Pre.Match.720p-EN
Description EURO.Qualifiers.2023.06.16.Denmark.vs.Northern.Ireland.PREMIER.Pre.Match.720p-EN

Release Details
Network:
Language:
Notes:




Media Info:
General
Complete name                            : EUQ.2023.06.16.Denmark.vs.Northern.Ireland.PREMIER.Pre.Match.720p-EN.mp4
Format                                   : MPEG-4
Format profile                           : Base Media
Codec ID                                 : isom (isom/iso2/avc1/mp41)
File size                                : 651 MiB
Duration                                 : 28 min 3 s
Overall bit rate mode                    : Variable
Overall bit rate                         : 3 242 kb/s
Writing application                      : Lavf58.76.100

Video
ID                                       : 1
Format                                   : AVC
Format/Info                              : Advanced Video Codec
Format profile                           : High@L3.1
Format settings                          : 1 Ref Frames
Format settings, CABAC                   : No
Format settings, Reference frames        : 1 frame
Codec ID                                 : avc1
Codec ID/Info                            : Advanced Video Coding
Duration                                 : 28 min 3 s
Source duration                          : 28 min 3 s
Bit rate mode                            : Variable
Bit rate                                 : 3 045 kb/s
Maximum bit rate                         : 5 000 kb/s
Width                                    : 1 280 pixels
Height                                   : 720 pixels
Display aspect ratio                     : 16:9
Frame rate mode                          : Constant
Frame rate                               : 25.000 FPS
Color space                              : YUV
Chroma subsampling                       : 4:2:0
Bit depth                                : 8 bits
Scan type                                : Progressive
Bits/(Pixel*Frame)                       : 0.132
Stream size                              : 611 MiB (94%)
Source stream size                       : 611 MiB (94%)
Color range                              : Limited
Color primaries                          : BT.709
Transfer characteristics                 : BT.709
Matrix coefficients                      : BT.709
mdhd_Duration                            : 1683683
Codec configuration box                  : avcC

Audio
ID                                       : 2
Format                                   : AAC LC
Format/Info                              : Advanced Audio Codec Low Complexity
Codec ID                                 : mp4a-40-2
Duration                                 : 28 min 3 s
Bit rate mode                            : Variable
Bit rate                                 : 192 kb/s
Maximum bit rate                         : 195 kb/s / 195 kb/s
Channel(s)                               : 2 channels
Channel layout                           : L R
Sampling rate                            : 48.0 kHz
Frame rate                               : 46.875 FPS (1024 SPF)
Compression mode                         : Lossy
Stream size                              : 38.7 MiB (6%)
Default                                  : Yes
Alternate group                          : 1


Category EPL
Rating N/A
Size 650.75 MB
Show/Hide Files
1 file