Torrent’s details
Name NBA 2020 Boston Celtics vs Houston Rockets 28.07 720p 60fps ENG
Image
Description General
Unique ID                                : 321648998801425915588829301867509225526 (0xF1FB5805BA0F8DA28849DD2E79049836)
Complete name                            : NBA 2020 Boston Celtics vs Houston Rockets 28.07 720p 60fps ENG.mkv
Format                                   : Matroska
Format version                           : Version 4
File size                                : 4.67 GiB
Duration                                 : 1 h 41 min
Overall bit rate                         : 6 584 kb/s
Encoded date                             : UTC 2020-07-29 06:32:01
Writing application                      : mkvmerge v47.0.0 ('Black Flag'wink.gif 64-bit
Writing library                          : libebml v1.3.10 + libmatroska v1.5.2

Video
ID                                       : 1
Format                                   : AVC
Format/Info                              : Advanced Video Codec
Format profile                           : High@L3.2
Format settings                          : CABAC / 2 Ref Frames
Format settings, CABAC                   : Yes
Format settings, Reference frames        : 2 frames
Codec ID                                 : V_MPEG4/ISO/AVC
Duration                                 : 1 h 41 min
Bit rate mode                            : Constant
Bit rate                                 : 6 464 kb/s
Width                                    : 1 280 pixels
Height                                   : 720 pixels
Display aspect ratio                     : 16:9
Frame rate mode                          : Variable
Frame rate                               : 59.940 (59940/1000) FPS
Original frame rate                      : 59.940 (60000/1001) FPS
Standard                                 : Component
Color space                              : YUV
Chroma subsampling                       : 4:2:0
Bit depth                                : 8 bits
Scan type                                : Progressive
Bits/(Pixel*Frame)                       : 0.117
Stream size                              : 4.57 GiB (98%)
Default                                  : Yes
Forced                                   : No
Color range                              : Limited
Color primaries                          : BT.709
Transfer characteristics                 : BT.709
Matrix coefficients                      : BT.709

Audio
ID                                       : 2
Format                                   : AAC LC
Format/Info                              : Advanced Audio Codec Low Complexity
Codec ID                                 : A_AAC-2
Duration                                 : 1 h 41 min
Bit rate                                 : 125 kb/s
Channel(s)                               : 2 channels
Channel layout                           : L R
Sampling rate                            : 48.0 kHz
Frame rate                               : 46.875 FPS (1024 SPF)
Compression mode                         : Lossy
Delay relative to video                  : 64 ms
Stream size                              : 91.0 MiB (2%)
Default                                  : Yes
Forced                                   : No

Category NBA/WNBA
Rating N/A
Size 4.67 GB
Show/Hide Files
1 file