Torrent’s details
Name Formula 1 Drive To Survive S01-S02 2160p NF WEB-DL DDP5 1 x265-AREY
Description




Formula 1: Drive to Survive is a TV series starring Valtteri Bottas, Will Buxton, and Pierre Gasly. Docuseries following the FIA Formula One World Championship across multiple seasons.

https://www.imdb.com/title/tt8289930/


General
Unique ID : 56894977862465882574635961795040070247 (0x2ACD92FBD3697A576A3E7A8D4A8D4A67)
Complete name : Formula.1.Drive.to.Survive.S01E01.2019.Netflix.WEB-DL.4k.HEVC.DDP-AREY.mkv
Format : Matroska
Format version : Version 4
File size : 4.13 GiB
Duration : 36 min 14 s
Overall bit rate : 16.3 Mb/s
Encoded date : UTC 2020-08-21 06:38:26
Writing application : mkvmerge v48.0.0 ('Fortress Around Your Heart'wink.gif 64-bit
Writing library : libebml v1.4.0 + libmatroska v1.6.0

Video
ID : 1
Format : HEVC
Format/Info : High Efficiency Video Coding
Format profile : Main 10@L5.1@Main
Codec ID : V_MPEGH/ISO/HEVC
Duration : 36 min 14 s
Bit rate : 15.5 Mb/s
Width : 3 840 pixels
Height : 2 160 pixels
Display aspect ratio : 16:9
Frame rate mode : Constant
Frame rate : 50.000 FPS
Color space : YUV
Chroma subsampling : 4:2:0
Bit depth : 10 bits
Bits/(Pixel*Frame) : 0.037
Stream size : 3.93 GiB (95%)
Default : Yes
Forced : No
Color range : Limited
Color primaries : BT.709
Transfer characteristics : BT.709
Matrix coefficients : BT.709

Audio
ID : 2
Format : E-AC-3 JOC
Format/Info : Enhanced AC-3 with Joint Object Coding
Commercial name : Dolby Digital Plus with Dolby Atmos
Codec ID : A_EAC3
Duration : 36 min 14 s
Bit rate mode : Constant
Bit rate : 768 kb/s
Channel(s) : 6 channels
Channel layout : L R C LFE Ls Rs
Sampling rate : 48.0 kHz
Frame rate : 31.250 FPS (1536 SPF)
Compression mode : Lossy
Stream size : 199 MiB (5%)
Title : English [Original]
Language : English
Service kind : Complete Main
Default : Yes
Forced : No
Complexity index : 16
Number of dynamic objects : 15
Bed channel count : 1 channel
Bed channel configuration : LFE

Text #1
ID : 3
Format : UTF-8
Codec ID : S_TEXT/UTF8
Codec ID/Info : UTF-8 Plain Text
Duration : 16 min 26 s
Bit rate : 0 b/s
Count of elements : 2
Stream size : 53.0 Bytes (0%)
Title : English (Forced)
Language : English
Default : Yes
Forced : Yes

Text #2
ID : 4
Format : UTF-8
Codec ID : S_TEXT/UTF8
Codec ID/Info : UTF-8 Plain Text
Duration : 35 min 10 s
Bit rate : 154 b/s
Count of elements : 513
Stream size : 39.9 KiB (0%)
Title : العربية
Language : Arabic
Default : No
Forced : No

Text #3
ID : 5
Format : UTF-8
Codec ID : S_TEXT/UTF8
Codec ID/Info : UTF-8 Plain Text
Duration : 35 min 10 s
Bit rate : 82 b/s
Count of elements : 493
Stream size : 21.3 KiB (0%)
Title : čeština
Language : Czech
Default : No
Forced : No

Text #4
ID : 6
Format : UTF-8
Codec ID : S_TEXT/UTF8
Codec ID/Info : UTF-8 Plain Text
Duration : 35 min 10 s
Bit rate : 94 b/s
Count of elements : 535
Stream size : 24.3 KiB (0%)
Title : Dansk
Language : Danish
Default : No
Forced : No

Text #5
ID : 7
Format : UTF-8
Codec ID : S_TEXT/UTF8
Codec ID/Info : UTF-8 Plain Text
Duration : 35 min 11 s
Bit rate : 89 b/s
Count of elements : 525
Stream size : 23.2 KiB (0%)
Title : Deutsch
Language : German
Default : No
Forced : No

Text #6
ID : 8
Format : UTF-8
Codec ID : S_TEXT/UTF8
Codec ID/Info : UTF-8 Plain Text
Duration : 35 min 10 s
Bit rate : 151 b/s
Count of elements : 511
Stream size : 39.2 KiB (0%)
Title : Ελληνικά
Language : Greek
Default : No
Forced : No

Text #7
ID : 9
Format : UTF-8
Codec ID : S_TEXT/UTF8
Codec ID/Info : UTF-8 Plain Text
Duration : 34 min 41 s
Bit rate : 113 b/s
Count of elements : 590
Stream size : 28.8 KiB (0%)
Title : English (SDH)
Language : English
Default : No
Forced : No

Text #8
ID : 10
Format : UTF-8
Codec ID : S_TEXT/UTF8
Codec ID/Info : UTF-8 Plain Text
Duration : 35 min 11 s
Bit rate : 88 b/s
Count of elements : 527
Stream size : 22.8 KiB (0%)
Title : Español (Latinoamérica)
Language : Spanish
Default : No
Forced : No

Text #9
ID : 11
Format : UTF-8
Codec ID : S_TEXT/UTF8
Codec ID/Info : UTF-8 Plain Text
Duration : 35 min 11 s
Bit rate : 94 b/s
Count of elements : 535
Stream size : 24.3 KiB (0%)
Title : Español (España)
Language : Spanish
Default : No
Forced : No

Text #10
ID : 12
Format : UTF-8
Codec ID : S_TEXT/UTF8
Codec ID/Info : UTF-8 Plain Text
Duration : 35 min 10 s
Bit rate : 81 b/s
Count of elements : 403
Stream size : 21.0 KiB (0%)
Title : Suomi
Language : Finnish
Default : No
Forced : No

Text #11
ID : 13
Format : UTF-8
Codec ID : S_TEXT/UTF8
Codec ID/Info : UTF-8 Plain Text
Duration : 35 min 9 s
Bit rate : 88 b/s
Count of elements : 529
Stream size : 22.8 KiB (0%)
Title : Français
Language : French
Default : No
Forced : No

Text #12
ID : 14
Format : UTF-8
Codec ID : S_TEXT/UTF8
Codec ID/Info : UTF-8 Plain Text
Duration : 35 min 9 s
Bit rate : 119 b/s
Count of elements : 513
Stream size : 30.9 KiB (0%)
Title : עברית
Language : Hebrew
Default : No
Forced : No

Text #13
ID : 15
Format : UTF-8
Codec ID : S_TEXT/UTF8
Codec ID/Info : UTF-8 Plain Text
Duration : 35 min 11 s
Bit rate : 83 b/s
Count of elements : 550
Stream size : 21.6 KiB (0%)
Title : Magyar
Language : Hungarian
Default : No
Forced : No

Text #14
ID : 16
Format : UTF-8
Codec ID : S_TEXT/UTF8
Codec ID/Info : UTF-8 Plain Text
Duration : 35 min 9 s
Bit rate : 94 b/s
Count of elements : 531
Stream size : 24.2 KiB (0%)
Title : Indonesia
Language : Indonesian
Default : No
Forced : No

Text #15
ID : 17
Format : UTF-8
Codec ID : S_TEXT/UTF8
Codec ID/Info : UTF-8 Plain Text
Duration : 35 min 11 s
Bit rate : 90 b/s
Count of elements : 524
Stream size : 23.4 KiB (0%)
Title : Italiano
Language : Italian
Default : No
Forced : No

Text #16
ID : 18
Format : UTF-8
Codec ID : S_TEXT/UTF8
Codec ID/Info : UTF-8 Plain Text
Duration : 35 min 11 s
Bit rate : 91 b/s
Count of elements : 599
Stream size : 23.5 KiB (0%)
Title : 日本語
Language : Japanese
Default : No
Forced : No

Text #17
ID : 19
Format : UTF-8
Codec ID : S_TEXT/UTF8
Codec ID/Info : UTF-8 Plain Text
Duration : 35 min 13 s
Bit rate : 96 b/s
Count of elements : 545
Stream size : 25.0 KiB (0%)
Title : 한국어
Language : Korean
Default : No
Forced : No

Text #18
ID : 20
Format : UTF-8
Codec ID : S_TEXT/UTF8
Codec ID/Info : UTF-8 Plain Text
Duration : 34 min 45 s
Bit rate : 90 b/s
Count of elements : 471
Stream size : 23.1 KiB (0%)
Title : Norsk Bokmål
Language : Norwegian
Default : No
Forced : No

Text #19
ID : 21
Format : UTF-8
Codec ID : S_TEXT/UTF8
Codec ID/Info : UTF-8 Plain Text
Duration : 35 min 10 s
Bit rate : 70 b/s
Count of elements : 499
Stream size : 18.3 KiB (0%)
Title : Nederlands
Language : Dutch
Default : No
Forced : No

Text #20
ID : 22
Format : UTF-8
Codec ID : S_TEXT/UTF8
Codec ID/Info : UTF-8 Plain Text
Duration : 35 min 10 s
Bit rate : 83 b/s
Count of elements : 542
Stream size : 21.4 KiB (0%)
Title : Polski
Language : Polish
Default : No
Forced : No

Text #21
ID : 23
Format : UTF-8
Codec ID : S_TEXT/UTF8
Codec ID/Info : UTF-8 Plain Text
Duration : 35 min 10 s
Bit rate : 89 b/s
Count of elements : 550
Stream size : 23.2 KiB (0%)
Title : Português
Language : Portuguese
Default : No
Forced : No

Text #22
ID : 24
Format : UTF-8
Codec ID : S_TEXT/UTF8
Codec ID/Info : UTF-8 Plain Text
Duration : 35 min 11 s
Bit rate : 98 b/s
Count of elements : 524
Stream size : 25.3 KiB (0%)
Title : Português
Language : Portuguese
Default : No
Forced : No

Text #23
ID : 25
Format : UTF-8
Codec ID : S_TEXT/UTF8
Codec ID/Info : UTF-8 Plain Text
Duration : 35 min 10 s
Bit rate : 99 b/s
Count of elements : 521
Stream size : 25.5 KiB (0%)
Title : Română
Language : Romanian
Default : No
Forced : No

Text #24
ID : 26
Format : UTF-8
Codec ID : S_TEXT/UTF8
Codec ID/Info : UTF-8 Plain Text
Duration : 35 min 10 s
Bit rate : 142 b/s
Count of elements : 530
Stream size : 36.8 KiB (0%)
Title : Русский
Language : Russian
Default : No
Forced : No

Text #25
ID : 27
Format : UTF-8
Codec ID : S_TEXT/UTF8
Codec ID/Info : UTF-8 Plain Text
Duration : 35 min 10 s
Bit rate : 82 b/s
Count of elements : 455
Stream size : 21.3 KiB (0%)
Title : Svenska
Language : Swedish
Default : No
Forced : No

Text #26
ID : 28
Format : UTF-8
Codec ID : S_TEXT/UTF8
Codec ID/Info : UTF-8 Plain Text
Duration : 35 min 10 s
Bit rate : 214 b/s
Count of elements : 535
Stream size : 55.3 KiB (0%)
Title : ไทย
Language : Thai
Default : No
Forced : No

Text #27
ID : 29
Format : UTF-8
Codec ID : S_TEXT/UTF8
Codec ID/Info : UTF-8 Plain Text
Duration : 35 min 10 s
Bit rate : 92 b/s
Count of elements : 529
Stream size : 23.9 KiB (0%)
Title : Türkçe
Language : Turkish
Default : No
Forced : No

Text #28
ID : 30
Format : UTF-8
Codec ID : S_TEXT/UTF8
Codec ID/Info : UTF-8 Plain Text
Duration : 35 min 10 s
Bit rate : 161 b/s
Count of elements : 554
Stream size : 41.6 KiB (0%)
Title : Tiếng Việt
Language : Vietnamese
Default : No
Forced : No

Text #29
ID : 31
Format : UTF-8
Codec ID : S_TEXT/UTF8
Codec ID/Info : UTF-8 Plain Text
Duration : 35 min 10 s
Bit rate : 80 b/s
Count of elements : 548
Stream size : 20.8 KiB (0%)
Title : 中文(简体)
Language : Chinese
Default : No
Forced : No

Text #30
ID : 32
Format : UTF-8
Codec ID : S_TEXT/UTF8
Codec ID/Info : UTF-8 Plain Text
Duration : 35 min 10 s
Bit rate : 74 b/s
Count of elements : 570
Stream size : 19.2 KiB (0%)
Title : 中文(繁體)
Language : Chinese
Default : No
Forced : No
Category Documentary
Rating N/A
Size 81.85 GB
Show/Hide Files
20 files