Torrent’s details
Name La Liga Real Sociedad vs Real Madrid 04 12 2021 1080i 50fps HDTV MPA2 0 H.264-playTV
Image
Description La Liga Real Sociedad vs Real Madrid








Quote:

General
Unique ID                                : 208409878943901210622009954749428757224 (0x9CCA485C2BC68C3F66D31CAFC8BF72Ecool1.gif
Complete name                            : V:La.Liga.Real.Sociedad.vs.Real.Madrid.04.12.2021.1080i.HDTV.MPA2.0.H.264-playTVLa.Liga.Real.Sociedad.vs.Real.Madrid.04.12.2021.1080i.HDTV.MPA2.0.H.264-playTV.mkv
Format                                   : Matroska
Format version                           : Version 4
File size                                : 7.48 GiB
Duration                                 : 1 h 37 min
Overall bit rate                         : 11.0 Mb/s
Encoded date                             : UTC 2021-12-05 08:47:18
Writing application                      : mkvmerge v37.0.0 ('Leave It'wink.gif 64-bit
Writing library                          : libebml v1.3.9 + libmatroska v1.5.2

Video
ID                                       : 1
Format                                   : AVC
Format/Info                              : Advanced Video Codec
Format profile                           : High@L4
Format settings                          : CABAC / 4 Ref Frames
Format settings, CABAC                   : Yes
Format settings, Reference frames        : 4 frames
Format settings, GOP                     : M=4, N=24
Codec ID                                 : V_MPEG4/ISO/AVC
Duration                                 : 1 h 37 min
Bit rate                                 : 10.7 Mb/s
Width                                    : 1 920 pixels
Height                                   : 1 080 pixels
Display aspect ratio                     : 16:9
Frame rate mode                          : Variable
Frame rate                               : 50.000 FPS
Original frame rate                      : 25.000 FPS
Color space                              : YUV
Chroma subsampling                       : 4:2:0
Bit depth                                : 8 bits
Scan type                                : Interlaced
Scan type, store method                  : Separated fields
Scan order                               : Top Field First
Bits/(Pixel*Frame)                       : 0.103
Stream size                              : 7.30 GiB (98%)
Default                                  : Yes
Forced                                   : No
Color range                              : Limited
Color primaries                          : BT.709
Transfer characteristics                 : BT.709
Matrix coefficients                      : BT.709

Audio
ID                                       : 2
Format                                   : MPEG Audio
Format version                           : Version 1
Format profile                           : Layer 2
Codec ID                                 : A_MPEG/L2
Codec ID/Hint                            : MP2
Duration                                 : 1 h 37 min
Bit rate mode                            : Constant
Bit rate                                 : 256 kb/s
Channel(s)                               : 2 channels
Sampling rate                            : 48.0 kHz
Frame rate                               : 41.667 FPS (1152 SPF)
Compression mode                         : Lossy
Stream size                              : 179 MiB (2%)
Language                                 : Romanian
Default                                  : Yes
Forced                                   : No




Category La Liga
Rating N/A
Size 7.48 GB
Show/Hide Files
1 file