Torrent’s details
Name UFC on ESPN 25 Korean Zombie vs Ige Preliminary Fights 720p FP WEB DL x264 | Fight BB
Description Source: Fight Pass

General
Complete name                            : UFC.Fight.Night.Korean.Zombie.vs.Ige.Prelims.720p.WEB-DL.H264.Fight-BB.mp4
Format                                   : MPEG-4
Format profile                           : Base Media
Codec ID                                 : isom (isom/iso2/avc1/mp41)
File size                                : 4.63 GiB
Duration                                 : 3 h 30 min
Overall bit rate mode                    : Variable
Overall bit rate                         : 3 144 kb/s
Encoded date                             : UTC 1904-01-01 00:00:00
Tagged date                              : UTC 1904-01-01 00:00:00
Writing application                      : Lavf58.12.100

Video
ID                                       : 2
Format                                   : AVC
Format/Info                              : Advanced Video Codec
Format profile                           : High@L4.1
Format settings, CABAC                   : Yes
Format settings, ReFrames                : 4 frames
Format settings, GOP                     : M=1, N=60
Codec ID                                 : avc1
Codec ID/Info                            : Advanced Video Coding
Duration                                 : 3 h 30 min
Bit rate mode                            : Variable
Bit rate                                 : 3 002 kb/s
Maximum bit rate                         : 3 159 kb/s
Width                                    : 1 280 pixels
Height                                   : 720 pixels
Display aspect ratio                     : 16:9
Frame rate mode                          : Variable
Frame rate                               : 30.000 FPS
Minimum frame rate                       : 29.412 FPS
Maximum frame rate                       : 30.303 FPS
Standard                                 : NTSC
Color space                              : YUV
Chroma subsampling                       : 4:2:0
Bit depth                                : 8 bits
Scan type                                : Progressive
Bits/(Pixel*Frame)                       : 0.109
Stream size                              : 4.42 GiB (95%)
Encoded date                             : UTC 1904-01-01 00:00:00
Tagged date                              : UTC 1904-01-01 00:00:00
Color range                              : Limited
Color primaries                          : BT.709
Transfer characteristics                 : BT.709
Matrix coefficients                      : BT.709

Audio
ID                                       : 3
Format                                   : AAC
Format/Info                              : Advanced Audio Codec
Format profile                           : LC
Codec ID                                 : 40
Duration                                 : 3 h 30 min
Bit rate mode                            : Constant
Bit rate                                 : 132 kb/s
Channel(s)                               : 2 channels
Channel positions                        : Front: L R
Sampling rate                            : 48.0 kHz
Frame rate                               : 46.875 FPS (1024 spf)
Compression mode                         : Lossy
Stream size                              : 199 MiB (4%)
Default                                  : Yes
Alternate group                          : 1
Encoded date                             : UTC 1904-01-01 00:00:00
Tagged date                              : UTC 1904-01-01 00:00:00


Category MMA
Rating N/A
Size 4.63 GB
Show/Hide Files
1 file