Torrent’s details
Name Man in the Arena: Tom Brady S01E02 The Toughest Things 720p ESPN WEB-DL AAC2.0 H.264-KiMCHi
Image
Description
Quote:
This release is sourced from ESPN and is not transcoded, just remuxed from the direct stream.



General
Unique ID                                : 246231650221212281465864575169631670694 (0xB93E7DA7CD153A34AFD3AE97C1C8D1A6)
Complete name                            : Man.in.the.Arena.Tom.Brady.S01E02.The.Toughest.Things.720p.ESPN.WEB-DL.AAC2.0.H.264-KiMCHi.mkv
Format                                   : Matroska
Format version                           : Version 4
File size                                : 2.33 GiB
Duration                                 : 48 min 11 s
Overall bit rate mode                    : Variable
Overall bit rate                         : 6 935 kb/s
Movie name                               : Man in the Arena: Tom Brady - The Toughest Things [S01E02] 720p ESPN WEB-DL - KiMCHi
Encoded date                             : UTC 2021-11-24 05:51:06
Writing application                      : mkvmerge v38.0.0 ('The Silent Type'wink.gif 64-bit
Writing library                          : libebml v1.3.9 + libmatroska v1.5.2

Video
ID                                       : 1
Format                                   : AVC
Format/Info                              : Advanced Video Codec
Format profile                           : High@L4
Format settings                          : CABAC / 3 Ref Frames
Format settings, CABAC                   : Yes
Format settings, Reference frames        : 3 frames
Codec ID                                 : V_MPEG4/ISO/AVC
Duration                                 : 48 min 11 s
Bit rate mode                            : Variable
Bit rate                                 : 6 805 kb/s
Maximum bit rate                         : 8 590 kb/s
Width                                    : 1 280 pixels
Height                                   : 720 pixels
Display aspect ratio                     : 16:9
Frame rate mode                          : Constant
Frame rate                               : 59.940 (60000/1001) FPS
Color space                              : YUV
Chroma subsampling                       : 4:2:0
Bit depth                                : 8 bits
Scan type                                : Progressive
Bits/(Pixel*Frame)                       : 0.123
Stream size                              : 2.29 GiB (98%)
Default                                  : Yes
Forced                                   : No

Audio
ID                                       : 2
Format                                   : AAC LC
Format/Info                              : Advanced Audio Codec Low Complexity
Codec ID                                 : A_AAC-2
Duration                                 : 48 min 11 s
Bit rate                                 : 125 kb/s
Channel(s)                               : 2 channels
Channel layout                           : L R
Sampling rate                            : 48.0 kHz
Frame rate                               : 46.875 FPS (1024 SPF)
Compression mode                         : Lossy
Delay relative to video                  : -12 ms
Stream size                              : 43.2 MiB (2%)
Language                                 : English
Default                                  : Yes
Forced                                   : No
Category NFL
Rating N/A
Size 2.33 GB
Show/Hide Files
1 file