Torrent’s details
Name AMA.Motocross.2020.Round02.Hurricane.Mills.II ENG
Image
Description AMA.Motocross.2020.Round02.Hurricane.Mills.II ENG


Help the uploader for his effort Please Click Here Thanks.



[u]
Visit my blog
[u]

General
Complete name                            : G:StahováníAMA.Motocross.2020.Round02.Hurricane.Mills.IIAMA.2020.MX.RD02.Hurricane.Mills.2.250.450.Moto2.WEB-DL.x264.English.mp4
Format                                   : MPEG-4
Format profile                           : Base Media
Codec ID                                 : isom
File size                                : 5.04 GiB
Duration                                 : 1h 49mn
Overall bit rate mode                    : Constant
Overall bit rate                         : 6 621 Kbps
Writing application                      : Lavf54.63.104

Video
ID                                       : 1
Format                                   : AVC
Format/Info                              : Advanced Video Codec
Format profile                           : High@L4
Format settings, CABAC                   : Yes
Format settings, ReFrames                : 4 frames
Codec ID                                 : avc1
Codec ID/Info                            : Advanced Video Coding
Duration                                 : 1h 49mn
Bit rate mode                            : Constant
Bit rate                                 : 6 500 Kbps
Width                                    : 1 920 pixels
Height                                   : 1 080 pixels
Display aspect ratio                     : 16:9
Frame rate mode                          : Variable
Frame rate                               : 29.970 fps
Minimum frame rate                       : 29.970 fps
Maximum frame rate                       : 30.000 fps
Color space                              : YUV
Chroma subsampling                       : 4:2:0
Bit depth                                : 8 bits
Scan type                                : Progressive
Bits/(Pixel*Frame)                       : 0.105
Stream size                              : 4.96 GiB (98%)

Audio
ID                                       : 2
Format                                   : AAC
Format/Info                              : Advanced Audio Codec
Format profile                           : LC
Codec ID                                 : 40
Duration                                 : 1h 49mn
Bit rate mode                            : Constant
Bit rate                                 : 93.6 Kbps
Channel(s)                               : 2 channels
Channel positions                        : Front: L R
Sampling rate                            : 44.1 KHz
Compression mode                         : Lossy
Stream size                              : 73.0 MiB (1%)

Category AutoMotoRacing
Rating N/A
Size 9.95 GB
Show/Hide Files
2 files