Torrent’s details
Name FIFA World Cup 2018/07/07 Quarter Final Sweden vs England 720p HDTV 60fps DD5,1 ENG | FOX
Description FIFA World Cup 2018

Quarter Final - Sweden vs England (2018/07/07)

5.1 surround sound

Halftime not included. Commercials removed.

FIFA.World.Cup.2018.Quarter.Final.Sweden.vs.England.720p.HDTV.x264-KYR.mkv -- 5.16 GB -- 1h 47mn


_____________________________________


General
Unique ID : 242047083172454862233722431553950107626 (0xB61892923350D9A03A5ECEB2D27EC7EA)
Complete name : FIFA.World.Cup.2018.Quarter.Final.Sweden.vs.England.720p.HDTV.x264-KYR.mkv
Format : Matroska
Format version : Version 4 / Version 2
File size : 5.16 GiB
Duration : 1 h 47 min
Overall bit rate : 6 900 kb/s
Encoded date : UTC 2018-07-07 15:54:45
Writing application : mkvmerge v8.8.0 ('Wind at my back' ) 64bit
Writing library : libebml v1.3.3 + libmatroska v1.4.4

Video
ID : 1
Format : AVC
Format/Info : Advanced Video Codec
Format profile : High@L4.1
Format settings : CABAC / 5 Ref Frames
Format settings, CABAC : Yes
Format settings, ReFrames : 5 frames
Codec ID : V_MPEG4/ISO/AVC
Duration : 1 h 47 min
Bit rate : 6 448 kb/s
Width : 1 280 pixels
Height : 720 pixels
Display aspect ratio : 16:9
Frame rate mode : Constant
Frame rate : 59.940 (60000/1001) FPS
Color space : YUV
Chroma subsampling : 4:2:0
Bit depth : 8 bits
Scan type : Progressive
Bits/(Pixel*Frame) : 0.117
Stream size : 4.82 GiB (93%)
Writing library : x264 core 155 r2901 7d0ff22
Encoding settings : cabac=1 / ref=5 / deblock=1:0:0 / analyse=0x3:0x113 / me=hex / subme=8 / psy=1 /
psy_rd=1.00:0.00 / mixed_ref=1 / me_range=16 / chroma_me=1 / trellis=2 / 8x8dct=1 / cqm=0 /
deadzone=21,11 / fast_pskip=1 / chroma_qp_offset=-2 / threads=22 / lookahead_threads=3 /
sliced_threads=0 / nr=0 / decimate=1 / interlaced=0 / bluray_compat=0 / constrained_intra=0 / bframes=3 /
b_pyramid=2 / b_adapt=1 / b_bias=0 / direct=3 / weightb=1 / open_gop=0 / weightp=2 / keyint=250 /
keyint_min=25 / scenecut=40 / intra_refresh=0 / rc_lookahead=50 / rc=crf / mbtree=1 / crf=23.0 /
qcomp=0.60 / qpmin=0 / qpmax=69 / qpstep=4 / ip_ratio=1.40 / aq=1:1.00
Default : Yes
Forced : No
Color range : Limited
Matrix coefficients : BT.709

Audio
ID : 2
Format : AC-3
Format/Info : Audio Coding 3
Codec ID : A_AC3
Duration : 1 h 47 min
Bit rate mode : Constant
Bit rate : 448 kb/s
Channel(s) : 6 channels
Channel positions : Front: L C R, Side: L R, LFE
Sampling rate : 48.0 kHz
Frame rate : 31.250 FPS (1536 SPF)
Bit depth : 16 bits
Compression mode : Lossy
Stream size : 343 MiB (6%)
Service kind : Complete Main
Default : Yes
Forced : No


Know Your Role! cool1.gif
Category International Soccer
Rating
Size 5.16 GB
Show/Hide Files
1 file