Torrent’s details
Name Darts PDC Darts European Tour R02 German Darts Grand Prix Day2 Part2 1080p Hun Eng TaviG
Description ´╗┐General
Unique ID : 304840584528200617349529019126462234842 (0xE55629375823FF61CC5B4A5EC31F40DA)
Complete name : Darts.PDC.Darts.European.Tour.R02.German.Darts.Grand.Prix.Day2.Part2.1080p.Hun.Eng-TaviG.mkv
Format : Matroska
Format version : Version 4
File size : 12.3 GiB
Duration : 4 h 0 min
Overall bit rate mode : Variable
Overall bit rate : 7 304 kb/s
Frame rate : 25.000 FPS
Encoded date : 2024-04-02 17:07:09 UTC
Writing application : mkvmerge v52.0.0 ('Secret For The Mad'wink.gif 32-bit
Writing library : libebml v1.4.1 + libmatroska v1.6.2

Video
ID : 1
Format : AVC
Format/Info : Advanced Video Codec
Format profile : High@L4
Format settings : CABAC / 4 Ref Frames
Format settings, CABAC : Yes
Format settings, Reference frames : 4 frames
Codec ID : V_MPEG4/ISO/AVC
Duration : 4 h 0 min
Bit rate mode : Variable
Bit rate : 7 049 kb/s
Maximum bit rate : 14.0 Mb/s
Width : 1 920 pixels
Height : 1 080 pixels
Display aspect ratio : 16:9
Frame rate mode : Constant
Frame rate : 25.000 FPS
Color space : YUV
Chroma subsampling : 4:2:0
Bit depth : 8 bits
Scan type : Progressive
Bits/(Pixel*Frame) : 0.136
Stream size : 11.8 GiB (96%)
Default : Yes
Forced : No
Color range : Limited
Color primaries : BT.709
Transfer characteristics : BT.709
Matrix coefficients : BT.709

Audio #1
ID : 2
Format : AAC LC SBR
Format/Info : Advanced Audio Codec Low Complexity with Spectral Band Replication
Commercial name : HE-AAC
Format settings : Explicit
Codec ID : 2 / A_AAC-2
Duration : 4 h 0 min
Bit rate : 127 kb/s
Channel(s) : 2 channels
Channel layout : L R
Sampling rate : 48.0 kHz
Frame rate : 23.438 FPS (2048 SPF)
Compression mode : Lossy
Stream size : 217 MiB (2%)
Title : Hungarian
Language : Hungarian
Default : Yes
Forced : No

Audio #2
ID : 3
Format : AAC LC SBR
Format/Info : Advanced Audio Codec Low Complexity with Spectral Band Replication
Commercial name : HE-AAC
Format settings : Explicit
Codec ID : 2 / A_AAC-2
Duration : 4 h 0 min
Bit rate : 127 kb/s
Channel(s) : 2 channels
Channel layout : L R
Sampling rate : 48.0 kHz
Frame rate : 23.438 FPS (2048 SPF)
Compression mode : Lossy
Stream size : 217 MiB (2%)
Title : English
Language : English
Default : No
Forced : No
Category BrainGames
Rating N/A
Size 12.25 GB
Show/Hide Files
1 file