Torrent’s details
Name NBA 2024 Denver Nuggets vs Philadelphia 76ers 27/01 720pEN60fps | ABC
Description Format                      : MPEG-4
Format profile              : Base Media
Codec ID                    : isom (isom/iso2/avc1/mp41)
File size                   : 4.77 GiB
Duration                    : 1 h 50 min
Overall bit rate mode       : Variable
Overall bit rate            : 6 181 kb/s
Law rating                  : None
Recorded date               : 2024-01-28T08:41:49.0614128+02:00
Writing application         : Lavf60.3.100

Video
ID                          : 1
Format                      : AVC
Format/Info                 : Advanced Video Codec
Format profile              : High@L3.2
Format settings             : CABAC / 3 Ref Frames
Format settings, CABAC      : Yes
Format settings, Reference  : 3 frames
Codec ID                    : avc1
Codec ID/Info               : Advanced Video Coding
Duration                    : 1 h 50 min
Source duration             : 1 h 50 min
Bit rate mode               : Variable
Bit rate                    : 6 044 kb/s
Maximum bit rate            : 9 000 kb/s
Width                       : 1 280 pixels
Height                      : 720 pixels
Display aspect ratio        : 16:9
Frame rate mode             : Variable
Frame rate                  : 59.940 (60000/1001) FPS
Minimum frame rate          : 59.920 FPS
Maximum frame rate          : 60.000 FPS
Color space                 : YUV
Chroma subsampling          : 4:2:0
Bit depth                   : 8 bits
Scan type                   : Progressive
Bits/(Pixel*Frame)          : 0.109
Stream size                 : 4.66 GiB (98%)
Source stream size          : 4.66 GiB (98%)
Color range                 : Limited
Color primaries             : BT.709
Transfer characteristics    : BT.709
Matrix coefficients         : BT.709
Codec configuration box     : avcC

Audio
ID                          : 2
Format                      : AAC LC SBR
Format/Info                 : Advanced Audio Codec Low Complexity with Spectral Band Replication
Commercial name             : HE-AAC
Format settings             : Implicit
Codec ID                    : mp4a-40-2
Duration                    : 1 h 50 min
Bit rate mode               : Variable
Bit rate                    : 127 kb/s
Channel(s)                  : 2 channels
Channel layout              : L R
Sampling rate               : 48.0 kHz
Frame rate                  : 23.438 FPS (2048 SPF)
Compression mode            : Lossy
Stream size                 : 100.0 MiB (2%)
Default                     : Yes
Alternate group             : 1

Category NBA/WNBA
Rating N/A
Size 4.77 GB
Show/Hide Files
1 file