Torrent’s details
Name CFL 2018 Week 13 Saskatchewan Roughriders vs Winnipeg Blue Bombers 720p 60fps ENG | TSN
Image
Description Canadian Football League - Week 13

Saskatchewan Roughriders vs. Winnipeg Blue Bombers

Broadcast Date : Sept. 8, 2018

Half-time not included. Commercials removed.

___________________________


CFL.2018.Week.13.Saskatchewan.at.Winnipeg.720p.TYT.mkv -- 4.42 GB -- 2 hr 36 min



General
Unique ID : 339203875617102351012324206744596388556
(0xFF304A45FB03BB23EC985F4929841ACC)
Complete name : CFL.2018.Week.13.Saskatchewan.at.Winnipeg.720p.TYT.mkv
Format : Matroska
Format version : Version 4 / Version 2
File size : 4.42 GiB
Duration : 2 h 36 min
Overall bit rate : 4 050 kb/s
Encoded date : UTC 2018-09-09 21:59:44
Writing application : mkvmerge v21.0.0 ('Tardigrades Will Inherit The Earth' ) 64-bit
Writing library : libebml v1.3.5 + libmatroska v1.4.8

Video
ID : 1
Format : AVC
Format/Info : Advanced Video Codec
Format profile : High@L4.1
Format settings, CABAC : Yes
Format settings, ReFrames : 4 frames
Codec ID : V_MPEG4/ISO/AVC
Duration : 2 h 36 min
Bit rate : 3 824 kb/s
Width : 1 280 pixels
Height : 708 pixels
Display aspect ratio : 16:9
Frame rate mode : Constant
Frame rate : 59.940 (60000/1001) FPS
Color space : YUV
Chroma subsampling : 4:2:0
Bit depth : 8 bits
Scan type : Progressive
Bits/(Pixel*Frame) : 0.070
Stream size : 4.17 GiB (94%)
Writing library : x264 core 155 r2901 7d0ff22
Encoding settings : cabac=1 / ref=3 / deblock=1:-3:-3 / analyse=0x3:0x113 / me=hex /
subme=9 / psy=1 / psy_rd=1.00:0.00 / mixed_ref=1 / me_range=16 / chroma_me=1 /
trellis=1 / 8x8dct=1 / cqm=0 / deadzone=21,11 / fast_pskip=0 / chroma_qp_offset=-2 /
threads=24 / lookahead_threads=2 / sliced_threads=0 / nr=0 / decimate=0 / interlaced=0 /
bluray_compat=0 / constrained_intra=0 / bframes=8 / b_pyramid=2 / b_adapt=1 / b_bias=0 /
direct=1 / weightb=1 / open_gop=0 / weightp=2 / keyint=250 / keyint_min=25 / scenecut=40 /
intra_refresh=0 / rc_lookahead=150 / rc=crf / mbtree=0 / crf=26.0 / qcomp=0.70 / qpmin=0 /
qpmax=69 / qpstep=4 / vbv_maxrate=62500 / vbv_bufsize=78125 / crf_max=0.0 /
nal_hrd=none / filler=0 / ip_ratio=1.30 / pb_ratio=1.20 / aq=1:0.80
Language : English
Default : Yes
Forced : No

Audio
ID : 2
Format : AAC
Format/Info : Advanced Audio Codec
Format profile : LC
Codec ID : A_AAC
Duration : 2 h 36 min
Bit rate : 221 kb/s
Channel(s) : 2 channels
Channel positions : Front: L R
Sampling rate : 48.0 kHz
Frame rate : 46.875 FPS (1024 spf)
Compression mode : Lossy
Stream size : 247 MiB (5%)
Language : English
Default : Yes
Forced : No


Thanks to M! drunk.gif
Category American Football
Rating N/A
Size 4.42 GB
Show/Hide Files
1 file