Torrent’s details
Name FIFA.World.Cup.2022.Uruguay.vs.Coreea.de.Sud.24.11.2022.1080i.HDTV.MPA2.0.H.264-playTV RO
Description General
Unique ID                                : 230377489104263071106915136563599678191 (0xAD5117298EACC93E74E11F8C171C9AEF)
Complete name                            : FIFA.World.Cup.2022.Uruguay.vs.Coreea.de.Sud.24.11.2022.1080i.HDTV.MPA2.0.H.264-playTV.mkv
Format                                   : Matroska
Format version                           : Version 4
File size                                : 8.93 GiB
Duration                                 : 1 h 50 min
Overall bit rate                         : 11.6 Mb/s
Encoded date                             : UTC 2022-11-24 16:26:38
Writing application                      : mkvmerge v55.0.0 ('Waiting For Space'wink.gif 64-bit
Writing library                          : libebml v1.4.2 + libmatroska v1.6.4

Video
ID                                       : 1
Format                                   : AVC
Format/Info                              : Advanced Video Codec
Format profile                           : High@L4
Format settings                          : CABAC / 4 Ref Frames
Format settings, CABAC                   : Yes
Format settings, Reference frames        : 4 frames
Codec ID                                 : V_MPEG4/ISO/AVC
Duration                                 : 1 h 50 min
Bit rate                                 : 11.4 Mb/s
Width                                    : 1 920 pixels
Height                                   : 1 080 pixels
Display aspect ratio                     : 16:9
Frame rate mode                          : Constant
Frame rate                               : 25.000 FPS
Color space                              : YUV
Chroma subsampling                       : 4:2:0
Bit depth                                : 8 bits
Scan type                                : MBAFF
Scan type, store method                  : Interleaved fields
Scan order                               : Top Field First
Bits/(Pixel*Frame)                       : 0.220
Stream size                              : 8.78 GiB (98%)
Default                                  : Yes
Forced                                   : No

Audio
ID                                       : 2
Format                                   : MPEG Audio
Format version                           : Version 1
Format profile                           : Layer 2
Format settings                          : Joint stereo / Intensity Stereo + MS Stereo
Codec ID                                 : A_MPEG/L2
Codec ID/Hint                            : MP2
Duration                                 : 1 h 50 min
Bit rate mode                            : Constant
Bit rate                                 : 192 kb/s
Channel(s)                               : 2 channels
Sampling rate                            : 48.0 kHz
Frame rate                               : 41.667 FPS (1152 SPF)
Compression mode                         : Lossy
Stream size                              : 152 MiB (2%)
Language                                 : Romanian
Default                                  : Yes
Forced                                   : No



FIFA.World.Cup.2022.Uruguay.vs.Coreea.de.Sud.24.11.2022.1080i.HDTV.MPA2.0.H.264-playTV


* RELEASE iNFO * wrote:

█      RUNTIME............: 1 h 50 min                                               █
█      VIDEO CODEC........: H.264                                                    █
█      FRAMERATE..........: 50.000 FPS                                               █
█      BITRATE............: 11.4 Mb/s                                                █
█      RELEASE SIZE.......: 8.93 GB                                                  █
█      RESOLUTION.........: 1920x1080                                                █
█      ASPECT RATIO.......: 16:9                                                     █
█      AUDIO..............: Romanian @ MPEG Audio - 2 channels / 192 Kbps            █
█      SOURCE.............: TVR 1 HD                                                 █



* SCREENSHOTS *
  -----------  



* NOTES *
-----------

 Enjoy ! grin.gif
Category International Soccer
Rating N/A
Size 8.93 GB
Show/Hide Files
1 file