Torrent’s details
Name NBA 2024 Milwaukee Bucks vs Boston Celtics 20 03 1080pEN60fps WEB-DL No Breaks ABC-chknggt
Description NOTE: All breaks cut manually using lossless cut.

8.96 GiB 2 h 41 min -> 5.72 GiB 1 h 42 min


I plan to upload what I think was the best game each night with help from wikihoops. Not limited to one game and not guaranteed either (we could have a night of stinkers) If you wanna throw "chknggt" in your RSS feed you can know you've got a good game in 1080p 60fps without any spoilers.





Quote:
General
Unique ID                                : 63773083159974627475394842662008024124 (0x2FFA3FC1C3D6FC74E90EE14A61946C3C)
Complete name                            : NBA.2024.Milwaukee.Bucks.vs.Boston.Celtics.20.03.1080p.EN.60fps.WEB-DL.No.Breaks.ABC-chknggt.mkv
Format                                   : Matroska
Format version                           : Version 4
File size                                : 5.72 GiB
Duration                                 : 1 h 42 min
Overall bit rate                         : 7 997 kb/s
Frame rate                               : 59.940 FPS
Writing application                      : mkvmerge v80.0 ('Roundabout'wink.gif 64-bit
Writing library                          : libebml v1.4.4 + libmatroska v1.7.1 / Lavf60.3.100

Video
ID                                       : 1
Format                                   : AVC
Format/Info                              : Advanced Video Codec
Format profile                           : High@L4.2
Format settings                          : CABAC / 4 Ref Frames
Format settings, CABAC                   : Yes
Format settings, Reference frames        : 4 frames
Codec ID                                 : V_MPEG4/ISO/AVC
Duration                                 : 1 h 42 min
Bit rate mode                            : Constant
Bit rate                                 : 7 872 kb/s
Width                                    : 1 920 pixels
Height                                   : 1 080 pixels
Display aspect ratio                     : 16:9
Frame rate mode                          : Constant
Frame rate                               : 59.940 (59940/1000) FPS
Original frame rate                      : 59.940 (60000/1001) FPS
Color space                              : YUV
Chroma subsampling                       : 4:2:0
Bit depth                                : 8 bits
Scan type                                : Progressive
Bits/(Pixel*Frame)                       : 0.063
Stream size                              : 5.62 GiB (98%)
Default                                  : Yes
Forced                                   : No
Color range                              : Limited

Audio
ID                                       : 2
Format                                   : AAC LC SBR
Format/Info                              : Advanced Audio Codec Low Complexity with Spectral Band Replication
Commercial name                          : HE-AAC
Format settings                          : Explicit
Codec ID                                 : A_AAC-2
Duration                                 : 1 h 42 min
Bit rate                                 : 128 kb/s
Channel(s)                               : 2 channels
Channel layout                           : L R
Sampling rate                            : 48.0 kHz
Frame rate                               : 23.438 FPS (2048 SPF)
Compression mode                         : Lossy
Delay relative to video                  : -37 ms
Stream size                              : 93.7 MiB (2%)
Title                                    : ENG
Language                                 : English
Default                                  : Yes
Forced                                   : No

Category NBA/WNBA
Rating N/A
Size 5.72 GB
Show/Hide Files
1 file