Torrent’s details
Name Bundesliga.2019.05.12.Eintracht.Frankfurt.vs.Mainz.05.1080p.WEBRip.x264-VLF | BT
Description Bundesliga.2019.05.12.Eintracht.Frankfurt.vs.Mainz.05.1080p.WEBRip.x264-VLF | BT

Release Details
Network: BT
Language: English
Notes: Full Match

Do not re-upload elsewhere without permission!
This includes other torrent sites, Usenet, direct download links, etc.

Media Info:
General
Complete name                            : BL.2019.05.12.Eintracht.Frankfurt.vs.Mainz.BT.1080p-EN.mp4
Format                                   : MPEG-4
Format profile                           : Base Media
Codec ID                                 : isom
File size                                : 4.18 GiB
Duration                                 : 2h 2mn
Overall bit rate mode                    : Variable
Overall bit rate                         : 4 906 Kbps
Writing application                      : Lavf57.71.100

Video
ID                                       : 1
Format                                   : AVC
Format/Info                              : Advanced Video Codec
Format profile                           : High@L4.0
Format settings, CABAC                   : Yes
Format settings, ReFrames                : 1 frame
Format settings, GOP                     : M=1, N=60
Codec ID                                 : avc1
Codec ID/Info                            : Advanced Video Coding
Duration                                 : 2h 2mn
Bit rate mode                            : Variable
Bit rate                                 : 4 648 Kbps
Maximum bit rate                         : 4 800 Kbps
Width                                    : 1 920 pixels
Height                                   : 1 080 pixels
Display aspect ratio                     : 16:9
Frame rate mode                          : Variable
Frame rate                               : 25.000 fps
Minimum frame rate                       : 0.447 fps
Maximum frame rate                       : 25.000 fps
Color space                              : YUV
Chroma subsampling                       : 4:2:0
Bit depth                                : 8 bits
Scan type                                : Progressive
Bits/(Pixel*Frame)                       : 0.090
Stream size                              : 3.96 GiB (95%)

Audio
ID                                       : 2
Format                                   : AAC
Format/Info                              : Advanced Audio Codec
Format profile                           : LC
Codec ID                                 : 40
Duration                                 : 2h 2mn
Bit rate mode                            : Variable
Bit rate                                 : 256 Kbps
Channel(s)                               : 2 channels
Channel positions                        : Front: L R
Sampling rate                            : 44.1 KHz
Compression mode                         : Lossy
Stream size                              : 221 MiB (5%)


Category European Soccer
Rating N/A
Size 4.18 GB
Show/Hide Files
1 file