Torrent’s details
Name NCAAM 2023.01.12 Ohio St-Minnesota FS1 HD Replay
Description Video
ID                                       : 1
Format                                   : AVC
Format/Info                              : Advanced Video Codec
Format profile                           : High@L4
Format settings                          : CABAC / 4 Ref Frames
Format settings, CABAC                   : Yes
Format settings, RefFrames               : 4 frames
Codec ID                                 : avc1
Codec ID/Info                            : Advanced Video Coding
Duration                                 : 2 h 4 min
Source duration                          : 2 h 4 min
Bit rate                                 : 3 836 kb/s
Width                                    : 1 280 pixels
Height                                   : 720 pixels
Display aspect ratio                     : 16:9
Frame rate mode                          : Variable
Frame rate                               : 59.940 (60000/1001) FPS
Minimum frame rate                       : 58.882 FPS
Maximum frame rate                       : 62.563 FPS
Color space                              : YUV
Chroma subsampling                       : 4:2:0
Bit depth                                : 8 bits
Scan type                                : Progressive
Bits/(Pixel*Frame)                       : 0.069
Stream size                              : 3.33 GiB (95%)
Source stream size                       : 3.33 GiB (95%)
Language                                 : English
Encoded date                             : UTC 2023-01-13 08:10:01
Tagged date                              : UTC 2023-01-13 08:10:01
mdhd_Duration                            : 7460703

Audio
ID                                       : 2
Format                                   : AAC
Format/Info                              : Advanced Audio Codec
Format profile                           : LC
Codec ID                                 : mp4a-40-2
Duration                                 : 2 h 4 min
Source duration                          : 2 h 4 min
Bit rate mode                            : Variable
Bit rate                                 : 192 kb/s
Maximum bit rate                         : 539 kb/s
Channel(s)                               : 2 channels
Channel positions                        : Front: L R
Sampling rate                            : 48.0 kHz
Frame rate                               : 46.875 FPS (1024 SPF)
Compression mode                         : Lossy
Stream size                              : 171 MiB (5%)
Source stream size                       : 171 MiB (5%)
Language                                 : English
Category NCAA Basket/Football
Rating N/A
Size 3.51 GB
Show/Hide Files
1 file