Torrent’s details
Name CCTV5 Volleyball Nations League Women 2022 Turkiye VS Thailand 20220714 CN 1080p HDTV H.264 AAC-NoGroup
Description



Quote:

General
Complete name                            : Z:SportsCCTV5 Volleyball Nations League Women 2022 Turkiye VS Thailand 20220714 CN 1080p HDTV H.264 AAC-NoGroup.mp4
Format                                   : MPEG-4
Format profile                           : Base Media
Codec ID                                 : isom (isom/iso2/avc1/mp41)
File size                                : 1.88 GiB
Duration                                 : 1 h 39 min
Overall bit rate                         : 2 709 kb/s
Writing application                      : Lavf58.12.100

Video
ID                                       : 1
Format                                   : AVC
Format/Info                              : Advanced Video Codec
Format profile                           : High@L4
Format settings                          : CABAC / 4 Ref Frames
Format settings, CABAC                   : Yes
Format settings, Reference frames        : 4 frames
Codec ID                                 : avc1
Codec ID/Info                            : Advanced Video Coding
Duration                                 : 1 h 39 min
Bit rate                                 : 2 606 kb/s
Width                                    : 1 920 pixels
Height                                   : 1 080 pixels
Display aspect ratio                     : 16:9
Frame rate mode                          : Variable
Frame rate                               : 25.000 FPS
Minimum frame rate                       : 24.993 FPS
Maximum frame rate                       : 25.007 FPS
Color space                              : YUV
Chroma subsampling                       : 4:2:0
Bit depth                                : 8 bits
Scan type                                : Progressive
Bits/(Pixel*Frame)                       : 0.050
Stream size                              : 1.81 GiB (96%)
Color range                              : Limited
Codec configuration box                  : avcC

Audio
ID                                       : 2
Format                                   : AAC LC
Format/Info                              : Advanced Audio Codec Low Complexity
Codec ID                                 : mp4a-40-2
Duration                                 : 1 h 39 min
Bit rate mode                            : Constant
Bit rate                                 : 96.0 kb/s
Channel(s)                               : 2 channels
Channel layout                           : L R
Sampling rate                            : 48.0 kHz
Frame rate                               : 46.875 FPS (1024 SPF)
Compression mode                         : Lossy
Stream size                              : 68.3 MiB (4%)
Default                                  : Yes
Alternate group                          : 1






Category Volleyball/Beach
Rating N/A
Size 1.88 GB
Show/Hide Files
1 file