Torrent’s details
Name EFL.Championship.2020.07.30.Playoffs.Semi.Final.2nd.Leg.Fulham.vs.Cardiff.720p.WEB.x264-VLF | SKY
Image
Description EFL.Championship.2020.07.30.Playoffs.Semi.Final.2nd.Leg.Fulham.vs.Cardiff.720p.WEB.x264-VLF | SKY

Release Details
Network: sky
Language: english
Notes: full match + half time + post match

Do not re-upload elsewhere without permission!
This includes other torrent sites, Usenet, direct download links, etc.

Media Info:
General
Complete name                            : EFL.Championship.2020.07.30.Playoffs.SF.L2.Fulham.vs.Cardiff.SKY.Full.Broadcast.720p-EN.mp4
Format                                   : MPEG-4
Format profile                           : Base Media
Codec ID                                 : isom (isom/iso2/avc1/mp41)
File size                                : 5.54 GiB
Duration                                 : 2h 27mn
Overall bit rate mode                    : Variable
Overall bit rate                         : 5 394 Kbps
Encoded date                             : UTC 1904-01-01 00:00:00
Tagged date                              : UTC 1904-01-01 00:00:00
Writing application                      : Lavf57.83.100

Video
ID                                       : 1
Format                                   : AVC
Format/Info                              : Advanced Video Codec
Format profile                           : High@L4
Format settings, CABAC                   : Yes
Format settings, ReFrames                : 1 frame
Codec ID                                 : avc1
Codec ID/Info                            : Advanced Video Coding
Duration                                 : 2h 27mn
Bit rate mode                            : Variable
Bit rate                                 : 5 023 Kbps
Maximum bit rate                         : 7 500 Kbps
Width                                    : 1 920 pixels
Height                                   : 1 080 pixels
Display aspect ratio                     : 16:9
Frame rate mode                          : Variable
Frame rate                               : 24.919 fps
Minimum frame rate                       : 0.109 fps
Maximum frame rate                       : 25.000 fps
Original frame rate                      : 25.000 fps
Color space                              : YUV
Chroma subsampling                       : 4:2:0
Bit depth                                : 8 bits
Scan type                                : Progressive
Bits/(Pixel*Frame)                       : 0.097
Stream size                              : 5.16 GiB (93%)
Encoded date                             : UTC 1904-01-01 00:00:00
Tagged date                              : UTC 1904-01-01 00:00:00

Audio
ID                                       : 2
Format                                   : AAC
Format/Info                              : Advanced Audio Codec
Format profile                           : LC
Codec ID                                 : 40
Duration                                 : 2h 27mn
Bit rate mode                            : Constant
Bit rate                                 : 365 Kbps
Channel(s)                               : 2 channels
Channel positions                        : Front: L R
Sampling rate                            : 48.0 KHz
Frame rate                               : 46.875 fps (1024 spf)
Compression mode                         : Lossy
Stream size                              : 384 MiB (7%)
Default                                  : Yes
Alternate group                          : 1
Encoded date                             : UTC 1904-01-01 00:00:00
Tagged date                              : UTC 1904-01-01 00:00:00


Category EPL
Rating N/A
Size 5.54 GB
Show/Hide Files
1 file