Torrent’s details
Name NBA Playoffs 2020 WCR1 Utah Jazz vs Denver Nuggets Game 3 21/08/2020 1080iEN60fps | TNT
Image
Description https://watch.nba.com/game/20200821/DENUTA
Format                                   : Matroska
Format version                           : Version 4 / Version 2
File size                                : 3.84 GiB
Duration                                 : 1 h 29 min
Overall bit rate                         : 6 117 kb/s
Encoded date                             : UTC 2020-08-21 23:15:52
Writing application                      : mkvmerge v47.0.0 ('Black Flag'wink.gif 64-bit
Writing library                          : libebml v1.3.10 + libmatroska v1.5.2
Video ID                                       : 1
Format                                   : AVC
Format/Info                              : Advanced Video Codec
Format profile                           : High@L4.2
Format settings, CABAC                   : Yes
Format settings, RefFrames               : 3 frames
Codec ID                                 : V_MPEG4/ISO/AVC
Duration                                 : 1 h 29 min
Bit rate                                 : 5 987 kb/s
Width                                    : 1 920 pixels
Height                                   : 1 080 pixels
Display aspect ratio                     : 16:9
Frame rate mode                          : Variable
Frame rate                               : 59.940 (59940/1000) FPS
Color space                              : YUV
Chroma subsampling                       : 4:2:0
Bit depth                                : 8 bits
Scan type                                : Progressive
Bits/(Pixel*Frame)                       : 0.048
Stream size                              : 3.76 GiB (98%)
Default                                  : Yes
Forced                                   : No
Color range                              : Limited
Color primaries                          : BT.709
Transfer characteristics                 : BT.709
Matrix coefficients                      : BT.709
Audio ID                                       : 2
Format                                   : AAC
Format/Info                              : Advanced Audio Codec
Format profile                           : LC
Codec ID                                 : A_AAC
Duration                                 : 1 h 29 min
Bit rate                                 : 126 kb/s
Channel(s)                               : 2 channels
Channel positions                        : Front: L R
Sampling rate                            : 44.1 kHz
Frame rate                               : 43.066 FPS (1024 SPF)
Compression mode                         : Lossy
Delay relative to video                  : 8 ms
Stream size                              : 80.7 MiB (2%)
Default                                  : Yes
Forced                                   : No
Category NBA/WNBA
Rating N/A
Size 3.84 GB
Show/Hide Files
1 file