Torrent’s details
Name La Liga 2023 Osasuna vs Barcelona 03 09 720pSPA60fps ESPN+
Description ormat                                   : MPEG-4
Format profile                           : Base Media
Codec ID                                 : isom (isom/iso2/avc1/mp41)
File size                                : 5.99 GiB
Duration                                 : 2 h 3 min
Overall bit rate mode                    : Constant
Overall bit rate                         : 6 967 kb/s
Frame rate                               : 59.940 FPS
Writing application                      : Lavf60.6.100

Video
ID                                       : 1
Format                                   : AVC
Format/Info                              : Advanced Video Codec
Format profile                           : High@L4
Format settings                          : CABAC / 4 Ref Frames
Format settings, CABAC                   : Yes
Format settings, Reference frames        : 4 frames
Codec ID                                 : avc1
Codec ID/Info                            : Advanced Video Coding
Duration                                 : 2 h 3 min
Bit rate mode                            : Constant
Bit rate                                 : 6 822 kb/s
Width                                    : 1 280 pixels
Height                                   : 720 pixels
Display aspect ratio                     : 16:9
Frame rate mode                          : Variable
Frame rate                               : 59.940 (60000/1001) FPS
Minimum frame rate                       : 57.554 FPS
Maximum frame rate                       : 62.500 FPS
Color space                              : YUV
Chroma subsampling                       : 4:2:0
Bit depth                                : 8 bits
Scan type                                : Progressive
Bits/(Pixel*Frame)                       : 0.124
Stream size                              : 5.86 GiB (98%)
mdhd_Duration                            : 7381874
Codec configuration box                  : avcC

Audio
ID                                       : 2
Format                                   : AAC LC
Format/Info                              : Advanced Audio Codec Low Complexity
Codec ID                                 : mp4a-40-2
Duration                                 : 2 h 3 min
Bit rate mode                            : Constant
Bit rate                                 : 125 kb/s
Channel(s)                               : 2 channels
Channel layout                           : L R
Sampling rate                            : 48.0 kHz
Frame rate                               : 46.875 FPS (1024 SPF)
Compression mode                         : Lossy
Stream size                              : 110 MiB (2%)
Default                                  : Yes
Alternate group                          : 1
Category La Liga
Rating N/A
Size 5.99 GB
Show/Hide Files
1 file