Torrent’s details
Name Manchester United Season Review 2019-2020 1080p EN 25fps MUTV
Image
Description General
Complete name : Manchester United Season Review 2019-2020 1080p EN 25fps MUTV.mp4
Format : MPEG-4
Format profile : Base Media / Version 2
Codec ID : mp42 (mp42)
File size : 4.02 GiB
Duration : 56 min 28 s
Overall bit rate : 10.2 Mb/s
Codirector : codirector
Production studio : studio
ContentType : Unknown Type
Encoded date : UTC 2021-01-03 01:07:20
Tagged date : UTC 2021-01-03 01:07:20

Video
ID : 1
Format : AVC
Format/Info : Advanced Video Codec
Format profile : High@L5.1
Format settings : CABAC / 1 Ref Frames
Format settings, CABAC : Yes
Format settings, Reference frames : 1 frame
Codec ID : avc1
Codec ID/Info : Advanced Video Coding
Duration : 56 min 28 s
Bit rate : 9 992 kb/s
Width : 1 920 pixels
Height : 1 080 pixels
Display aspect ratio : 16:9
Frame rate mode : Constant
Frame rate : 25.000 FPS
Color space : YUV
Chroma subsampling : 4:2:0
Bit depth : 8 bits
Scan type : Progressive
Bits/(Pixel*Frame) : 0.193
Stream size : 3.94 GiB (98%)
Language : English
Color range : Limited
Color primaries : BT.709
Transfer characteristics : BT.709
Matrix coefficients : BT.709
Codec configuration box : avcC

Audio
ID : 2
Format : AAC LC
Format/Info : Advanced Audio Codec Low Complexity
Codec ID : mp4a-40-2
Duration : 56 min 28 s
Bit rate mode : Constant
Bit rate : 192 kb/s
Channel(s) : 2 channels
Channel layout : L R
Sampling rate : 44.1 kHz
Frame rate : 43.066 FPS (1024 SPF)
Compression mode : Lossy
Stream size : 77.5 MiB (2%)
Title : Stereo
Language : English
Default : Yes
Alternate group : 1
Category EPL
Rating N/A
Size 4.02 GB
Show/Hide Files
1 file