Torrent’s details
Name UFC 254 Early Prelims 2020/10/24 720p HDTV 60fps ENG | VERUM
Image
Description UFC 254 Early Prelims

125 lbs.: Liana Jojua vs. Miranda Maverick
155 lbs.: Joel Alvarez vs. Alexander Yakovlev
_____________

General
Unique ID : 0 (0x0)
Complete name : ufc.254.early.prelims.720p.hdtv.x264-verum.mkv
Format : Matroska
Format version : Version 4
File size : 1.21 GiB
Duration : 59 min 8 s
Overall bit rate : 2 932 kb/s
Encoded date : UTC 2010-02-22 21:41:29
Writing application : no_variable_data
Writing library : no_variable_data

Video
ID : 1
Format : AVC
Format/Info : Advanced Video Codec
Format profile : High@L4.1
Format settings : CABAC / 5 Ref Frames
Format settings, CABAC : Yes
Format settings, Reference frames : 5 frames
Codec ID : V_MPEG4/ISO/AVC
Duration : 59 min 8 s
Bit rate : 2 490 kb/s
Width : 1 280 pixels
Height : 720 pixels
Display aspect ratio : 16:9
Frame rate mode : Constant
Frame rate : 59.940 (60000/1001) FPS
Color space : YUV
Chroma subsampling : 4:2:0
Bit depth : 8 bits
Scan type : Progressive
Bits/(Pixel*Frame) : 0.045
Stream size : 1.03 GiB (85%)
Writing library : x264 core 161 r3018 db0d417
Encoding settings : cabac=1 / ref=5 / deblock=1:0:0 / analyse=0x3:0x113 / me=hex /
subme=8 / psy=1 / psy_rd=1.00:0.00 / mixed_ref=1 / me_range=16 / chroma_me=1 /
trellis=2 / 8x8dct=1 / cqm=0 / deadzone=21,11 / fast_pskip=1 / chroma_qp_offset=-2 /
threads=22 / lookahead_threads=3 / sliced_threads=0 / nr=0 / decimate=1 /
interlaced=0 / bluray_compat=0 / constrained_intra=0 / bframes=3 / b_pyramid=2 /
b_adapt=1 / b_bias=0 / direct=3 / weightb=1 / open_gop=0 / weightp=2 / keyint=250 /
keyint_min=25 / scenecut=40 / intra_refresh=0 / rc_lookahead=50 / rc=crf / mbtree=1 /
crf=23.0 / qcomp=0.60 / qpmin=0 / qpmax=69 / qpstep=4 / ip_ratio=1.40 / aq=1:1.00
Default : Yes
Forced : No
Color range : Limited
Matrix coefficients : BT.709
Statistics Tags Issue : no_variable_data 1970-01-01 00:00:00 / no_variable_data 2010-02-22 21:41:29
FromStats_BitRate : 2544417
FromStats_Duration : 00:59:08.558000000
FromStats_FrameCount : 212700
FromStats_StreamSize : 1128626744

Audio
ID : 2
Format : MPEG Audio
Format version : Version 1
Format profile : Layer 2
Codec ID : A_MPEG/L2
Codec ID/Hint : MP2
Duration : 59 min 8 s
Bit rate mode : Constant
Bit rate : 384 kb/s
Channel(s) : 2 channels
Sampling rate : 48.0 kHz
Compression mode : Lossy
Stream size : 162 MiB (13%)
Language : English
Default : Yes
Forced : No
Statistics Tags Issue : no_variable_data 1970-01-01 00:00:00 / no_variable_data 2010-02-22 21:41:29
FromStats_BitRate : 384000
FromStats_Duration : 00:59:08.568000000
FromStats_FrameCount : 147857
FromStats_StreamSize : 170331264


Respect to VERUM!  cool2.gifdrunk.gifsleep.gif
Category MMA
Rating N/A
Size 1.21 GB
Show/Hide Files
1 file