Torrent’s details
Name 1985.ECR1.BULLS@BUCKS.Game 1.ENGLISH
Description Format                                   : MPEG-PS
File size                                : 6.99 GiB
Duration                                 : 1 h 55 min
Overall bit rate mode                    : Variable
Overall bit rate                         : 8 675 kb/s
Frame rate                               : 29.970 FPS

Video
ID                                       : 224 (0xE0)
Format                                   : MPEG Video
Format version                           : Version 2
Format profile                           : Main@Main
Format settings                          : BVOP
Format settings, BVOP                    : Yes
Format settings, Matrix                  : Default
Format settings, GOP                     : M=3, N=15
Duration                                 : 1 h 55 min
Bit rate mode                            : Variable
Bit rate                                 : 8 311 kb/s
Maximum bit rate                         : 9 200 kb/s
Width                                    : 720 pixels
Height                                   : 480 pixels
Display aspect ratio                     : 16:9
Frame rate                               : 29.970 (30000/1001) FPS
Standard                                 : Component
Color space                              : YUV
Chroma subsampling                       : 4:2:0
Bit depth                                : 8 bits
Scan type                                : Progressive
Compression mode                         : Lossy
Bits/(Pixel*Frame)                       : 0.802
Time code of first frame                 : 00:15:30;15
Time code source                         : Group of pictures header
GOP, Open/Closed                         : Closed
Stream size                              : 6.70 GiB (96%)
Color primaries                          : BT.601 NTSC
Transfer characteristics                 : BT.601
Matrix coefficients                      : BT.601

Audio
ID                                       : 189 (0xBD)-128 (0x80)
Format                                   : AC-3
Format/Info                              : Audio Coding 3
Commercial name                          : Dolby Digital
Muxing mode                              : DVD-Video
Duration                                 : 1 h 55 min
Bit rate mode                            : Constant
Bit rate                                 : 192 kb/s
Channel(s)                               : 2 channels
Channel layout                           : L R
Sampling rate                            : 48.0 kHz
Frame rate                               : 31.250 FPS (1536 SPF)
Compression mode                         : Lossy
Stream size                              : 158 MiB (2%)
Service kind                             : Complete Main

Category NBA/WNBA
Rating N/A
Size 6.99 GB
Show/Hide Files
1 file