Torrent’s details
Name NCAA.Baseball.Mens.2022.06.05.Game.6.Air.Force.vs.Texas.720p60fps.H264
Image
Description This match is unedited broadcast that has commercials.

Format                                   : MPEG-4
Format profile                           : Base Media
Codec ID                                 : isom (isom/iso2/avc1/mp41)
File size                                : 8.27 GiB
Duration                                 : 3 h 30 min
Overall bit rate mode                    : Constant
Overall bit rate                         : 5 623 kb/s
Writing application                      : Lavf59.20.101

Video
ID                                       : 1
Format                                   : AVC
Format/Info                              : Advanced Video Codec
Format profile                           : High@L4
Format settings                          : CABAC / 4 Ref Frames
Format settings, CABAC                   : Yes
Format settings, Reference frames        : 4 frames
Codec ID                                 : avc1
Codec ID/Info                            : Advanced Video Coding
Duration                                 : 3 h 30 min
Bit rate mode                            : Constant
Bit rate                                 : 5 478 kb/s
Width                                    : 1 280 pixels
Height                                   : 720 pixels
Display aspect ratio                     : 16:9
Frame rate mode                          : Variable
Frame rate                               : 59.940 (59940/1000) FPS
Minimum frame rate                       : 0.375 FPS
Maximum frame rate                       : 59.960 FPS
Original frame rate                      : 59.940 (60000/1001) FPS
Color space                              : YUV
Chroma subsampling                       : 4:2:0
Bit depth                                : 8 bits
Scan type                                : Progressive
Bits/(Pixel*Frame)                       : 0.099
Stream size                              : 8.06 GiB (97%)
Codec configuration box                  : avcC

Audio
ID                                       : 2
Format                                   : AAC LC
Format/Info                              : Advanced Audio Codec Low Complexity
Codec ID                                 : mp4a-40-2
Duration                                 : 3 h 30 min
Source duration                          : 3 h 30 min
Bit rate mode                            : Constant
Bit rate                                 : 125 kb/s
Channel(s)                               : 2 channels
Channel layout                           : L R
Sampling rate                            : 48.0 kHz
Frame rate                               : 46.875 FPS (1024 SPF)
Compression mode                         : Lossy
Stream size                              : 189 MiB (2%)
Source stream size                       : 189 MiB (2%)
Default                                  : Yes
Alternate group                          : 1
Category Baseball
Rating N/A
Size 8.27 GB
Show/Hide Files
1 file