Torrent’s details
Name Invicta.FC.36.720p.WEB-DL.H264.Fight 09.08.2019/ENG
Description Invicta.FC.36.720p.WEB-DL.H264.Fight 09.08.2019/ENG


Help the uploader for his effort Please Click Here Thanks.




Visit my blog



Code
General
Complete name                            : G:StahováníInvicta.FC.36.720p.WEB-DL.H264.Fight.mp4
Format                                   : MPEG-4
Format profile                           : Base Media
Codec ID                                 : isom
File size                                : 7.41 GiB
Duration                                 : 3h 59mn
Overall bit rate                         : 4 420 Kbps
Writing application                      : Lavf58.12.100

Video
ID                                       : 1
Format                                   : AVC
Format/Info                              : Advanced Video Codec
Format profile                           : Main@L4
Format settings, CABAC                   : Yes
Format settings, ReFrames                : 3 frames
Codec ID                                 : avc1
Codec ID/Info                            : Advanced Video Coding
Duration                                 : 3h 59mn
Bit rate                                 : 4 280 Kbps
Width                                    : 1 280 pixels
Height                                   : 720 pixels
Display aspect ratio                     : 16:9
Frame rate mode                          : Constant
Frame rate                               : 29.970 fps
Color space                              : YUV
Chroma subsampling                       : 4:2:0
Bit depth                                : 8 bits
Scan type                                : Progressive
Bits/(Pixel*Frame)                       : 0.155
Stream size                              : 7.17 GiB (97%)

Audio
ID                                       : 2
Format                                   : AAC
Format/Info                              : Advanced Audio Codec
Format profile                           : LC
Codec ID                                 : 40
Duration                                 : 3h 59mn
Bit rate mode                            : Constant
Bit rate                                 : 129 Kbps
Channel(s)                               : 2 channels
Channel positions                        : Front: L R
Sampling rate                            : 44.1 KHz
Compression mode                         : Lossy
Stream size                              : 221 MiB (3%)




Category MMA
Rating N/A
Size 7.41 GB
Show/Hide Files
1 file