Torrent’s details
Name BKFC Fight Night Tampa 2 - 20220723 - Full Event 1080p WEB h264
Description Full Event


General
Complete name                            : BKFC.Fight.Night.Tampa.2.Full.Event.1080p.WEB.h264-LaGR.mkv
Format                                   : Matroska
Format version                           : Version 4 / Version 2
File size                                : 8.69 GiB
Duration                                 : 4h 12mn
Overall bit rate                         : 4 920 Kbps
Encoded date                             : UTC 2022-07-24 20:50:34
Writing application                      : mkvmerge v68.0.0 ('The Curtain'wink.gif 64-bit
Writing library                          : libebml v1.4.2 + libmatroska v1.6.4

Video
Format                                   : AVC
Format/Info                              : Advanced Video Codec
Format profile                           : Main @ L4
Codec ID                                 : V_MPEG4/ISO/AVC
Duration                                 : 4h 12mn
Bit rate                                 : 4 724 Kbps
Width                                    : 1 920 pixels
Height                                   : 1 080 pixels
Display aspect ratio                     : 16:9
Frame rate mode                          : Variable
Frame rate                               : 29.970 fps
Color space                              : YUV
Chroma subsampling                       : 4:2:0
Bit depth                                : 8 bits
Scan type                                : Progressive
Bits/(Pixel*Frame)                       : 0.076
Stream size                              : 8.34 GiB (96%)

Audio
Format                                   : AAC
Format/Info                              : Advanced Audio Codec
Format profile                           : LC
Codec ID                                 : A_AAC
Duration                                 : 4h 12mn
Bit rate                                 : 192 Kbps
Channel(s)                               : 2 channels
Channel positions                        : Front: L R
Sampling rate                            : 48.0 KHz
Stream size                              : 348 MiB (4%)
Category Boxing
Rating N/A
Size 8.69 GB
Show/Hide Files
1 file