Torrent’s details
Name 2022.04.26-UCL.Manchester.City-Real.Madrid.1080p.WEB-DL.x264-shock | EN | 50FPS | BTS2HD
Description Information

Event: 2022.04.26-UCL.Machester.City-Real.Madrid – Semi-final, 1st leg
BT Sport 2 HD UK, Seeding on a 10GB seedbox
Language: English
Ripper: shock a.k.a. anjaklama
Video: x264, 1980x1080, 50 fps, ~6,5 MBps
Audio: AAC, stereo, 48 KHz, 96 kbps



Format                      : Matroska
Format version              : Version 4
File size                   : 4.72 GiB
Duration                    : 1 h 42 min
Overall bit rate            : 6 588 kb/s
Encoded date                : UTC 2022-04-26 21:09:24
Writing application         : mkvmerge v67.0.0 ('Under Stars'wink.gif 64-bit
Writing library             : libebml v1.4.2 + libmatroska v1.6.4

Video
ID                          : 1
Format                      : AVC
Format/Info                 : Advanced Video Codec
Format profile              : High@L4.2
Format settings             : CABAC / 2 Ref Frames
Format settings, CABAC      : Yes
Format settings, Reference  : 2 frames
Codec ID                    : V_MPEG4/ISO/AVC
Duration                    : 1 h 42 min
Bit rate mode               : Constant
Bit rate                    : 6 500 kb/s
Width                       : 1 920 pixels
Height                      : 1 080 pixels
Display aspect ratio        : 16:9
Frame rate mode             : Constant
Frame rate                  : 50.000 FPS
Color space                 : YUV
Chroma subsampling          : 4:2:0
Bit depth                   : 8 bits
Scan type                   : Progressive
Bits/(Pixel*Frame)          : 0.063
Stream size                 : 4.65 GiB (99%)
Default                     : Yes
Forced                      : No

Audio
ID                          : 2
Format                      : AAC LC SBR
Format/Info                 : Advanced Audio Codec Low Complexity with Spectral Band Replication
Commercial name             : HE-AAC
Format settings             : Implicit
Codec ID                    : A_AAC-2
Duration                    : 1 h 42 min
Bit rate                    : 96.0 kb/s
Channel(s)                  : 2 channels
Channel layout              : L R
Sampling rate               : 48.0 kHz
Frame rate                  : 23.438 FPS (2048 SPF)
Compression mode            : Lossy
Stream size                 : 69.5 MiB (1%)
Language                    : English
Default                     : Yes
Forced                      : No



Screenshots:






Category European Soccer
Rating N/A
Size 4.72 GB
Show/Hide Files
1 file