Torrent’s details
Name U18.Premier.League.2019.11.30.West.Brom.U18.vs.Manchester.United.U18.576p.WEB.x264-VLF | MUTV
Image
Description U18.Premier.League.2019.11.30.West.Brom.U18.vs.Manchester.United.U18.576p.WEB.x264-VLF | MUTV

Release Details
Network: MUTV
Language: English
Notes: Full Match including Pre/Half/Post match coverage

Do not re-upload elsewhere without permission!
This includes other torrent sites, Usenet, direct download links, etc.

Media Info:
General
Complete name                            : U18.EPL.2019.11.30.West.Brom.U18.vs.Manchester.United.U18.MUTV.576p-EN.mp4
Format                                   : MPEG-4
Format profile                           : Base Media
Codec ID                                 : isom (isom/iso2/avc1/mp41)
File size                                : 1.17 GiB
Duration                                 : 2h 20mn
Overall bit rate mode                    : Variable
Overall bit rate                         : 1 188 Kbps
Encoded date                             : UTC 1904-01-01 00:00:00
Tagged date                              : UTC 1904-01-01 00:00:00
Writing application                      : Lavf57.83.100

Video
ID                                       : 1
Format                                   : AVC
Format/Info                              : Advanced Video Codec
Format profile                           : High@L3
Format settings, CABAC                   : Yes
Format settings, ReFrames                : 1 frame
Format settings, GOP                     : M=1, N=60
Codec ID                                 : avc1
Codec ID/Info                            : Advanced Video Coding
Duration                                 : 2h 20mn
Bit rate mode                            : Variable
Bit rate                                 : 995 Kbps
Maximum bit rate                         : 1 500 Kbps
Width                                    : 720 pixels
Height                                   : 576 pixels
Display aspect ratio                     : 1.85:1
Original display aspect ratio            : 1.85:1
Frame rate mode                          : Variable
Frame rate                               : 25.000 fps
Minimum frame rate                       : 0.552 fps
Maximum frame rate                       : 25.000 fps
Standard                                 : PAL
Color space                              : YUV
Chroma subsampling                       : 4:2:0
Bit depth                                : 8 bits
Scan type                                : Progressive
Bits/(Pixel*Frame)                       : 0.096
Stream size                              : 1 000 MiB (84%)
Encoded date                             : UTC 1904-01-01 00:00:00
Tagged date                              : UTC 1904-01-01 00:00:00

Audio
ID                                       : 2
Format                                   : AAC
Format/Info                              : Advanced Audio Codec
Format profile                           : LC
Codec ID                                 : 40
Duration                                 : 2h 20mn
Bit rate mode                            : Constant
Bit rate                                 : 192 Kbps
Channel(s)                               : 2 channels
Channel positions                        : Front: L R
Sampling rate                            : 48.0 KHz
Frame rate                               : 46.875 fps (1024 spf)
Compression mode                         : Lossy
Stream size                              : 190 MiB (16%)
Default                                  : Yes
Alternate group                          : 1
Encoded date                             : UTC 1904-01-01 00:00:00
Tagged date                              : UTC 1904-01-01 00:00:00


Category EPL
Rating N/A
Size 1.17 GB
Show/Hide Files
1 file





[ Queries: 24|0 ] - [ Script Execution: 0.0055 sec. ] - [ GZIP: disabled ]