Torrent’s details
Name Formula1.2017.SkyF1HD.1080p50
Description All 20 races of the 2017 Formula 1 season. F1 is the highest class of single-seat auto racing that is sanctioned by the Fédération Internationale de l'Automobile (FIA). Commentary by Martin Brundle & David Croft.

Includes pre-race buildup, race, and post-race analysis.

Source: SkyF1HD
Capper: smcgill1969

MediaInfo:

Code
General
Complete name                            : Formula1.2017.SkyF1HD.1080p50/Formula.1.2017x05.Spain.Race.SkyF1HD.1080p50/02.Race.Session.1080p50.mp4
Format                                   : MPEG-4
Format profile                           : QuickTime
Codec ID                                 : qt   2005.03 (qt  wink.gif
File size                                : 5.35 GiB
Duration                                 : 2h 2mn
Overall bit rate mode                    : Variable
Overall bit rate                         : 6 263 Kbps
Encoded date                             : UTC 2017-05-14 11:55:35
Tagged date                              : UTC 2017-05-14 13:58:54
Writing library                          : Apple QuickTime

Video
ID                                       : 1
Format                                   : AVC
Format/Info                              : Advanced Video Codec
Format profile                           : High@L4.2
Format settings                          : CABAC / 2 Ref Frames
Format settings, CABAC                   : Yes
Format settings, ReFrames                : 2 frames
Format settings, GOP                     : M=3, N=24
Codec ID                                 : avc1
Codec ID/Info                            : Advanced Video Coding
Duration                                 : 2h 2mn
Bit rate mode                            : Variable
Bit rate                                 : 5 997 Kbps
Maximum bit rate                         : 12.4 Mbps
Width                                    : 1 920 pixels
Height                                   : 1 080 pixels
Original height                          : 1 088 pixels
Display aspect ratio                     : 16:9
Original display aspect ratio            : 16:9
Frame rate mode                          : Constant
Frame rate                               : 50.000 fps
Color space                              : YUV
Chroma subsampling                       : 4:2:0
Bit depth                                : 8 bits
Scan type                                : Progressive
Bits/(Pixel*Frame)                       : 0.058
Stream size                              : 5.12 GiB (96%)
Language                                 : English
Encoded date                             : UTC 2017-05-14 11:55:35
Tagged date                              : UTC 2017-05-14 13:58:53
Codec configuration box                  : avcC

Audio
ID                                       : 2
Format                                   : AAC LC
Format/Info                              : Advanced Audio Codec Low Complexity
Codec ID                                 : mp4a-40-2
Duration                                 : 2h 2mn
Source duration                          : 2h 2mn
Source_Duration_FirstFrame               : 5ms
Bit rate mode                            : Constant
Bit rate                                 : 256 Kbps
Channel(s)                               : 2 channels
Channel layout                           : L R
Sampling rate                            : 48.0 KHz
Frame rate                               : 46.875 fps (1024 SPF)
Compression mode                         : Lossy
Stream size                              : 222 MiB (4%)
Source stream size                       : 222 MiB (4%)
Language                                 : English
Encoded date                             : UTC 2017-05-14 11:55:35
Tagged date                              : UTC 2017-05-14 13:58:53


Category Formula1
Rating N/A
Size 252.95 GB
Show/Hide Files
60 files