Torrent’s details
Name UCL.2019.03.13.R16.L2.Barcelona.vs.Lyon.Full.Broadcast.1080p-EN | BT
Image
Description UCL.2019.03.13.R16.L2.Barcelona.vs.Lyon.Full.Broadcast.1080p-EN | BT

Release Details
Network: BT
Language: English
Notes: Full Broadcast including Pre-Match + Half-Time

Do not re-upload elsewhere without permission!
This includes other torrent sites, Usenet, direct download links, etc.

Media Info:
General
Complete name                            : UCL.2019.03.13.R16.L2.Barcelona.vs.Lyon.BT.Full.Broadcast.1080p-EN.mp4
Format                                   : MPEG-4
Format profile                           : Base Media
Codec ID                                 : isom
File size                                : 6.48 GiB
Duration                                 : 2h 20mn
Overall bit rate mode                    : Constant
Overall bit rate                         : 6 600 Kbps
Writing application                      : Lavf57.71.100

Video
ID                                       : 1
Format                                   : AVC
Format/Info                              : Advanced Video Codec
Format profile                           : High@L4.2
Format settings, CABAC                   : Yes
Format settings, ReFrames                : 2 frames
Codec ID                                 : avc1
Codec ID/Info                            : Advanced Video Coding
Duration                                 : 2h 20mn
Bit rate mode                            : Constant
Bit rate                                 : 6 500 Kbps
Width                                    : 1 920 pixels
Height                                   : 1 080 pixels
Display aspect ratio                     : 16:9
Frame rate mode                          : Variable
Frame rate                               : 50.000 fps
Minimum frame rate                       : 0.502 fps
Maximum frame rate                       : 50.028 fps
Color space                              : YUV
Chroma subsampling                       : 4:2:0
Bit depth                                : 8 bits
Scan type                                : Progressive
Bits/(Pixel*Frame)                       : 0.063
Stream size                              : 6.38 GiB (98%)

Audio
ID                                       : 2
Format                                   : AAC
Format/Info                              : Advanced Audio Codec
Format profile                           : HE-AAC / LC
Codec ID                                 : 40
Duration                                 : 2h 20mn
Bit rate mode                            : Constant
Bit rate                                 : 96.0 Kbps
Channel(s)                               : 2 channels
Channel positions                        : Front: L R
Sampling rate                            : 48.0 KHz / 24.0 KHz
Compression mode                         : Lossy
Stream size                              : 95.2 MiB (1%)


Category European Soccer
Rating N/A
Size 6.48 GB
Show/Hide Files
1 file