Torrent’s details
Name NBA 1990 03 16 Celtics@Magic DVD Eng
Image
Description Video
ID                          : 224 (0xE0)
Format                      : MPEG Video
Format version              : Version 2
Format profile              : Main@Main
Format settings             : CustomMatrix / BVOP
Format settings, BVOP       : Yes
Format settings, Matrix     : Custom
Format settings, GOP        : M=3, N=15
Format settings, picture st : Frame
Duration                    : 8 s 96 ms
Bit rate mode               : Variable
Bit rate                    : 1 039 Mb/s
Maximum bit rate            : 9 586 kb/s
Width                       : 704 pixels
Height                      : 480 pixels
Display aspect ratio        : 4:3
Frame rate                  : 29.970 (30000/1001) FPS
Standard                    : NTSC
Color space                 : YUV
Chroma subsampling          : 4:2:0
Bit depth                   : 8 bits
Scan type                   : Interlaced
Scan order                  : Top Field First
Compression mode            : Lossy
Bits/(Pixel*Frame)          : 102.601
Time code of first frame    : 00:00:00:00
Time code source            : Group of pictures header
Stream size                 : 1 004 MiB (98%)
Color primaries             : BT.601 NTSC
Transfer characteristics    : BT.601
Matrix coefficients         : BT.601

Audio
ID                          : 189 (0xBD)-128 (0x80)
Format                      : AC-3
Format/Info                 : Audio Coding 3
Muxing mode                 : DVD-Video
Duration                    : 7 s 749 ms
Bit rate mode               : Constant
Bit rate                    : 256 kb/s
Channel(s)                  : 2 channels
Channel positions           : Front: L R
Sampling rate               : 48.0 kHz
Frame rate                  : 31.250 FPS (1536 SPF)
Bit depth                   : 16 bits
Compression mode            : Lossy
Stream size                 : 242 KiB (0%)
Service kind                : Complete Main

Menu

Category NBA/WNBA
Rating N/A
Size 4.00 GB
Show/Hide Files
10 files