Torrent’s details
Name NBA RS 2019 11 06 New York Knicks@Detroit Pistons.1080p30fps.ts
Description General
ID                             : 1 (0x1)
Complete name                  : D:1111NBA 2019-2020 RS 06.11.2019 New York Knicks @ Detroit Pistons.ts
Format                         : MPEG-TS
File size                      : 12.8 GiB
Duration                       : 1 h 39 min
Overall bit rate mode          : Variable
Overall bit rate               : 18.4 Mb/s

Video
ID                             : 101 (0x65)
Menu ID                        : 201 (0xC9)
Format                         : MPEG Video
Format version                 : Version 2
Format profile                 : Main@High
Format settings                : CustomMatrix / BVOP
Format settings, BVOP          : Yes
Format settings, Matrix        : Custom
Format settings, GOP           : M=3, N=15
Format settings, picture struc : Frame
Codec ID                       : 2
Duration                       : 1 h 39 min
Bit rate mode                  : Variable
Bit rate                       : 17.0 Mb/s
Maximum bit rate               : 18.0 Mb/s
Width                          : 1 920 pixels
Height                         : 1 080 pixels
Display aspect ratio           : 16:9
Frame rate                     : 29.970 (30000/1001) FPS
Color space                    : YUV
Chroma subsampling             : 4:2:0
Bit depth                      : 8 bits
Scan type                      : Interlaced
Scan order                     : Top Field First
Compression mode               : Lossy
Bits/(Pixel*Frame)             : 0.274
Time code of first frame       : 00:00:00;00
Time code source               : Group of pictures header
GOP, Open/Closed               : Open
GOP, Open/Closed of first fram : Closed
Stream size                    : 11.8 GiB (92%)

Audio #1
ID                             : 7582 (0x1D9E)
Menu ID                        : 201 (0xC9)
Format                         : AC-3
Format/Info                    : Audio Coding 3
Commercial name                : Dolby Digital
Codec ID                       : 129
Duration                       : 1 h 39 min
Bit rate mode                  : Constant
Bit rate                       : 384 kb/s
Channel(s)                     : 6 channels
Channel layout                 : L R C LFE Ls Rs
Sampling rate                  : 48.0 kHz
Frame rate                     : 31.250 FPS (1536 SPF)
Compression mode               : Lossy
Delay relative to video        : 1 ms
Stream size                    : 273 MiB (2%)
Language                       : English
Service kind                   : Complete Main

Category NBA/WNBA
Rating N/A
Size 12.79 GB
Show/Hide Files
1 file