Torrent’s details
Name England vs South Africa 2022 | 1st ODI Highlights | 1080p | SuperSport
Image
Description
Code
General
Complete name                            : England v South Africa 2022 - 1st ODI SuperSport Highlights 1080p.mp4
Format                                   : MPEG-4
Format profile                           : Base Media
Codec ID                                 : isom (isom/iso2/avc1/mp41)
File size                                : 1.78 GiB
Duration                                 : 51 min 55 s
Overall bit rate mode                    : Variable
Overall bit rate                         : 4 899 kb/s
Writing application                      : Lavf57.56.101

Video
ID                                       : 1
Format                                   : AVC
Format/Info                              : Advanced Video Codec
Format profile                           : High@L4
Format settings                          : CABAC / 4 Ref Frames
Format settings, CABAC                   : Yes
Format settings, Reference frames        : 4 frames
Codec ID                                 : avc1
Codec ID/Info                            : Advanced Video Coding
Duration                                 : 51 min 55 s
Bit rate                                 : 4 786 kb/s
Width                                    : 1 920 pixels
Height                                   : 1 080 pixels
Display aspect ratio                     : 16:9
Frame rate mode                          : Variable
Frame rate                               : 25.000 FPS
Minimum frame rate                       : 16.954 FPS
Maximum frame rate                       : 25.000 FPS
Color space                              : YUV
Chroma subsampling                       : 4:2:0
Bit depth                                : 8 bits
Scan type                                : Progressive
Bits/(Pixel*Frame)                       : 0.092
Stream size                              : 1.73 GiB (97%)
Writing library                          : x264 core 152 r2851 ba24899

Audio
ID                                       : 2
Format                                   : AAC LC
Format/Info                              : Advanced Audio Codec Low Complexity
Codec ID                                 : mp4a-40-2
Duration                                 : 51 min 55 s
Bit rate mode                            : Variable
Bit rate                                 : 132 kb/s
Maximum bit rate                         : 134 kb/s
Channel(s)                               : 2 channels
Channel layout                           : L R
Sampling rate                            : 48.0 kHz
Frame rate                               : 46.875 FPS (1024 SPF)
Compression mode                         : Lossy
Stream size                              : 49.4 MiB (3%)
Default                                  : Yes
Alternate group                          : 1



Category Cricket
Rating N/A
Size 1.78 GB
Show/Hide Files
1 file