Torrent’s details
Name NBA 2009 03 11 Lakers@Rockets 960x544 Eng
Image
Description Video
ID                          : 1
Format                      : AVC
Format/Info                 : Advanced Video Codec
Format profile              : High@L4.1
Format settings             : CABAC / 4 Ref Frames
Format settings, CABAC      : Yes
Format settings, ReFrames   : 4 frames
Codec ID                    : avc1
Codec ID/Info               : Advanced Video Coding
Duration                    : 18 min 34 s
Bit rate                    : 3 000 kb/s
Maximum bit rate            : 5 073 kb/s
Width                       : 960 pixels
Height                      : 544 pixels
Display aspect ratio        : 16:9
Frame rate mode             : Constant
Frame rate                  : 59.940 (60000/1001) FPS
Color space                 : YUV
Chroma subsampling          : 4:2:0
Bit depth                   : 8 bits
Scan type                   : Progressive
Bits/(Pixel*Frame)          : 0.096
Stream size                 : 398 MiB (97%)
Writing library             : x264 core 65 r1077M e46f648
Encoding settings           : cabac=1 / ref=4 / deblock=1:-3:-3 / analyse=0x3:0x113 / me=umh / subme=7 / psy_rd=1.0:0.0 / mixed_ref=1 / me_range=16 / chroma_me=1 / trellis=2 / 8x8dct=1 / cqm=0 / deadzone=21,11 / chroma_qp_offset=-2 / threads=6 / nr=0 / decimate=1 / mbaff=0 / bframes=3 / b_pyramid=0 / b_adapt=2 / b_bias=0 / direct=3 / wpredb=1 / keyint=250 / keyint_min=25 / scenecut=40(pre) / rc=2pass / bitrate=3000 / ratetol=1.0 / qcomp=0.60 / qpmin=10 / qpmax=51 / qpstep=4 / cplxblur=20.0 / qblur=0.5 / vbv_maxrate=50000 / vbv_bufsize=50000 / ip_ratio=1.40 / pb_ratio=1.30 / aq=1:1.00
Encoded date                : UTC 2009-03-14 10:22:38
Tagged date                 : UTC 2009-03-14 18:50:08

Audio
ID                          : 2
Format                      : AAC
Format/Info                 : Advanced Audio Codec
Format profile              : HE-AAC / LC
Format settings             : Explicit
Codec ID                    : mp4a-40-2
Duration                    : 18 min 34 s
Bit rate mode               : Variable
Bit rate                    : 84.2 kb/s
Maximum bit rate            : 100 kb/s
Channel(s)                  : 2 channels
Channel positions           : Front: L R
Sampling rate               : 48.0 kHz / 24.0 kHz
Frame rate                  : 23.438 FPS (1024 SPF)
Compression mode            : Lossy
Stream size                 : 11.2 MiB (3%)
Encoded date                : UTC 2009-03-14 18:50:07
Tagged date                 : UTC 2009-03-14 18:50:08
Category NBA/WNBA
Rating N/A
Size 2.12 GB
Show/Hide Files
4 files