Torrent’s details
Name KHL 2021-22. Regular season. Ak Bars Kazan v Jokerit Helsinki (2021.09.02)
Image
Description KHL 2021-22. Regular season. Ak Bars Kazan v Jokerit Helsinki (2021.09.02)


Help the uploader for his effort Please Click Here Thanks.



[u]
Visit my blog
[u]


General
Unique ID                                : 86319755714447675064690296827165284367 (0x40F0948A1A0889F55D56526E5CA4180F)
Complete name                            : G:KHLKHL 2021-22. Regular season. Ak Bars Kazan v Jokerit Helsinki (2021.09.02).mkv
Format                                   : Matroska
Format version                           : Version 4 / Version 2
File size                                : 3.28 GiB
Duration                                 : 1h 57mn
Overall bit rate                         : 3 983 Kbps
Writing application                      : VideoReDo (Lavf56.25.101)
Writing library                          : VideoReDo (Lavf56.25.101)

Video
ID                                       : 1
Format                                   : AVC
Format/Info                              : Advanced Video Codec
Format profile                           : High@L4.1
Format settings, CABAC                   : Yes
Format settings, ReFrames                : 4 frames
Codec ID                                 : V_MPEG4/ISO/AVC
Duration                                 : 1h 57mn
Bit rate                                 : 3 776 Kbps
Width                                    : 1 280 pixels
Height                                   : 720 pixels
Display aspect ratio                     : 16:9
Frame rate mode                          : Constant
Frame rate                               : 50.000 fps
Color space                              : YUV
Chroma subsampling                       : 4:2:0
Bit depth                                : 8 bits
Scan type                                : Progressive
Bits/(Pixel*Frame)                       : 0.082
Stream size                              : 3.11 GiB (95%)
Default                                  : No
Forced                                   : No
Color range                              : Limited
Color primaries                          : BT.709
Transfer characteristics                 : BT.709
Matrix coefficients                      : BT.709

Audio
ID                                       : 2
Format                                   : AC-3
Format/Info                              : Audio Coding 3
Mode extension                           : CM (complete main)
Format settings, Endianness              : Big
Codec ID                                 : A_AC3
Duration                                 : 1h 57mn
Bit rate mode                            : Constant
Bit rate                                 : 128 Kbps
Channel(s)                               : 2 channels
Channel positions                        : Front: L R
Sampling rate                            : 48.0 KHz
Compression mode                         : Lossy
Stream size                              : 108 MiB (3%)
Language                                 : Russian
Default                                  : Yes
Forced                                   : No



Category KHL
Rating N/A
Size 3.28 GB
Show/Hide Files
1 file