Torrent’s details
Name NASCAR.Cup.Series.2023r27.Cook.Out.Southern.500.Weekend.On.NBC.1080P
Description NASCAR.Cup.Series.2023r27.Cook.Out.Southern.500.Weekend.On.NBC.1080P

[u]
Visit my blog
[u]

General
Unique ID                                : 211926040044343189879456788137630557224 (0x9F6F787CA0E945A931BAA625CC90E42cool1.gif
Complete name                            : C:UserskrizoDesktopstahov√°n√≠nhl+mlbNASCAR.Cup.Series.2023.R27.Cook.Out.Southern.500.Weekend.On.NBC.1080P2.NASCAR.Cup.Series.2023.R27.Cook.Out.Southern.500.Race.USA.1080P.mkv
Format                                   : Matroska
Format version                           : Version 4
File size                                : 12.0 GiB
Duration                                 : 4 h 30 min
Overall bit rate mode                    : Variable
Overall bit rate                         : 6 361 kb/s
Encoded date                             : UTC 2023-09-04 10:33:38
Writing application                      : mkvmerge v79.0 ('Funeral Pyres'wink.gif 64-bit
Writing library                          : libebml v1.4.4 + libmatroska v1.7.1

Video
ID                                       : 1
Format                                   : AVC
Format/Info                              : Advanced Video Codec
Format profile                           : High@L4
Format settings                          : CABAC / 4 Ref Frames
Format settings, CABAC                   : Yes
Format settings, Reference frames        : 4 frames
Codec ID                                 : V_MPEG4/ISO/AVC
Duration                                 : 4 h 30 min
Bit rate mode                            : Variable
Bit rate                                 : 6 264 kb/s
Maximum bit rate                         : 7 830 kb/s
Width                                    : 1 920 pixels
Height                                   : 1 080 pixels
Display aspect ratio                     : 16:9
Frame rate mode                          : Constant
Frame rate                               : 29.970 (30000/1001) FPS
Standard                                 : Component
Color space                              : YUV
Chroma subsampling                       : 4:2:0
Bit depth                                : 8 bits
Scan type                                : Progressive
Bits/(Pixel*Frame)                       : 0.101
Stream size                              : 11.8 GiB (98%)
Default                                  : Yes
Forced                                   : No
Color range                              : Limited
Color primaries                          : BT.709
Transfer characteristics                 : BT.709
Matrix coefficients                      : BT.709

Audio
ID                                       : 2
Format                                   : AAC LC
Format/Info                              : Advanced Audio Codec Low Complexity
Codec ID                                 : A_AAC-2
Duration                                 : 4 h 30 min
Bit rate                                 : 96.0 kb/s
Channel(s)                               : 2 channels
Channel layout                           : L R
Sampling rate                            : 48.0 kHz
Frame rate                               : 46.875 FPS (1024 SPF)
Compression mode                         : Lossy
Delay relative to video                  : -2 ms
Stream size                              : 182 MiB (1%)
Language                                 : English
Default                                  : Yes
Forced                                   : No

Category AutoMotoRacing
Rating N/A
Size 15.86 GB
Show/Hide Files
2 files