Torrent’s details
Name FIFA World Cup Qualifiers 2021 | Portugal vs Luxembourg | 12 October 2021 | 1080p25fpsEN Sony
Description First Half


Quote:
General
Complete name                            : Por vs Lux 1.mp4
Format                                   : MPEG-4
Format profile                           : Base Media
Codec ID                                 : isom (isom/iso2/avc1/mp41)
File size                                : 1.17 GiB
Duration                                 : 46 min 48 s
Overall bit rate mode                    : Constant
Overall bit rate                         : 3 566 kb/s
Writing application                      : Lavf59.2.100

Video
ID                                       : 1
Format                                   : AVC
Format/Info                              : Advanced Video Codec
Format profile                           : High@L4
Format settings                          : CABAC / 2 Ref Frames
Format settings, CABAC                   : Yes
Format settings, Reference frames        : 2 frames
Codec ID                                 : avc1
Codec ID/Info                            : Advanced Video Coding
Duration                                 : 46 min 48 s
Source duration                          : 46 min 46 s
Bit rate mode                            : Constant
Bit rate                                 : 3 500 kb/s
Width                                    : 1 920 pixels
Height                                   : 1 080 pixels
Display aspect ratio                     : 16:9
Frame rate mode                          : Constant
Frame rate                               : 25.000 FPS
Color space                              : YUV
Chroma subsampling                       : 4:2:0
Bit depth                                : 8 bits
Scan type                                : Progressive
Bits/(Pixel*Frame)                       : 0.068
Stream size                              : 1.10 GiB (94%)
Source stream size                       : 1.14 GiB (98%)
mdhd_Duration                            : 2808040
Codec configuration box                  : avcC

Audio
ID                                       : 2
Format                                   : AAC LC
Format/Info                              : Advanced Audio Codec Low Complexity
Codec ID                                 : mp4a-40-2
Duration                                 : 46 min 48 s
Source duration                          : 46 min 48 s
Bit rate mode                            : Constant
Bit rate                                 : 62.2 kb/s
Channel(s)                               : 2 channels
Channel layout                           : L R
Sampling rate                            : 32.0 kHz
Frame rate                               : 31.250 FPS (1024 SPF)
Compression mode                         : Lossy
Stream size                              : 20.8 MiB (2%)
Source stream size                       : 20.8 MiB (2%)
Default                                  : Yes
Alternate group                          : 1
mdhd_Duration                            : 2808014




Second half


Quote:
General
Complete name                            : Por vs Lux 2.mp4
Format                                   : MPEG-4
Format profile                           : Base Media
Codec ID                                 : isom (isom/iso2/avc1/mp41)
File size                                : 1.35 GiB
Duration                                 : 54 min 8 s
Overall bit rate mode                    : Constant
Overall bit rate                         : 3 566 kb/s
Writing application                      : Lavf59.2.100

Video
ID                                       : 1
Format                                   : AVC
Format/Info                              : Advanced Video Codec
Format profile                           : High@L4
Format settings                          : CABAC / 2 Ref Frames
Format settings, CABAC                   : Yes
Format settings, Reference frames        : 2 frames
Codec ID                                 : avc1
Codec ID/Info                            : Advanced Video Coding
Duration                                 : 54 min 8 s
Source duration                          : 54 min 6 s
Bit rate mode                            : Constant
Nominal bit rate                         : 3 500 kb/s
Maximum bit rate                         : 3 500 kb/s
Width                                    : 1 920 pixels
Height                                   : 1 080 pixels
Display aspect ratio                     : 16:9
Frame rate mode                          : Constant
Frame rate                               : 25.000 FPS
Color space                              : YUV
Chroma subsampling                       : 4:2:0
Bit depth                                : 8 bits
Scan type                                : Progressive
Bits/(Pixel*Frame)                       : 0.068
Source stream size                       : 1.32 GiB (98%)
mdhd_Duration                            : 3248040
Codec configuration box                  : avcC

Audio
ID                                       : 2
Format                                   : AAC LC
Format/Info                              : Advanced Audio Codec Low Complexity
Codec ID                                 : mp4a-40-2
Duration                                 : 54 min 8 s
Source duration                          : 54 min 8 s
Bit rate mode                            : Constant
Nominal bit rate                         : 62.2 kb/s
Maximum bit rate                         : 62.2 kb/s
Channel(s)                               : 2 channels
Channel layout                           : L R
Sampling rate                            : 32.0 kHz
Frame rate                               : 31.250 FPS (1024 SPF)
Compression mode                         : Lossy
Source stream size                       : 24.1 MiB (2%)
Default                                  : Yes
Alternate group                          : 1
mdhd_Duration                            : 3248030


Category International Soccer
Rating N/A
Size 2.51 GB
Show/Hide Files
2 files