Torrent’s details
Name MLS 2022-08-31 Real Salt Lake vs. Minnesota United FC 720p
Description
Code
General
Complete name                            : G:MediaMLS adcuts2022-08-31 Real Salt Lake vs. Minnesota United FC.mp4
Format                                   : MPEG-4
Format profile                           : Base Media
Codec ID                                 : isom (isom/iso2/avc1/mp41)
File size                                : 5.55 GiB
Duration                                 : 1 h 53 min
Overall bit rate mode                    : Constant
Overall bit rate                         : 7 018 kb/s
Writing application                      : VideoReDo (Lavf58.29.100)

Video
ID                                       : 1
Format                                   : AVC
Format/Info                              : Advanced Video Codec
Format profile                           : High@L4
Format settings                          : CABAC / 4 Ref Frames
Format settings, CABAC                   : Yes
Format settings, Reference frames        : 4 frames
Codec ID                                 : avc1
Codec ID/Info                            : Advanced Video Coding
Duration                                 : 1 h 53 min
Bit rate mode                            : Constant
Bit rate                                 : 6 872 kb/s
Width                                    : 1 280 pixels
Height                                   : 720 pixels
Display aspect ratio                     : 16:9
Frame rate mode                          : Variable
Frame rate                               : 59.940 (60000/1001) FPS
Minimum frame rate                       : 59.920 FPS
Maximum frame rate                       : 59.960 FPS
Color space                              : YUV
Chroma subsampling                       : 4:2:0
Bit depth                                : 8 bits
Scan type                                : Progressive
Bits/(Pixel*Frame)                       : 0.124
Stream size                              : 5.43 GiB (98%)
Writing library                          : x264 core 160 r3000
Encoding settings                        : cabac=1 / ref=4 / deblock=1:0:0 / analyse=0x3:0x113 / me=hex / subme=4 / psy=1 / psy_rd=1.00:0.00 / mixed_ref=0 / me_range=16 / chroma_me=1 / trellis=1 / 8x8dct=1 / cqm=0 / deadzone=21,11 / fast_pskip=1 / chroma_qp_offset=0 / threads=22 / lookahead_threads=5 / sliced_threads=0 / nr=0 / decimate=1 / interlaced=0 / bluray_compat=0 / constrained_intra=0 / bframes=3 / b_pyramid=2 / b_adapt=1 / b_bias=0 / direct=1 / weightb=1 / open_gop=0 / weightp=1 / keyint=150 / keyint_min=15 / scenecut=0 / intra_refresh=0 / rc_lookahead=20 / rc=cbr / mbtree=1 / bitrate=7606 / ratetol=1.0 / qcomp=0.60 / qpmin=0 / qpmax=69 / qpstep=4 / vbv_maxrate=7606 / vbv_bufsize=17180 / nal_hrd=none / filler=0 / ip_ratio=1.40 / aq=1:1.00
Menus                                    : 3
Codec configuration box                  : avcC

Audio
ID                                       : 2
Format                                   : AAC LC
Format/Info                              : Advanced Audio Codec Low Complexity
Codec ID                                 : mp4a-40-2
Duration                                 : 1 h 53 min
Duration_LastFrame                       : -21 ms
Bit rate mode                            : Constant
Bit rate                                 : 125 kb/s
Channel(s)                               : 2 channels
Channel layout                           : L R
Sampling rate                            : 48.0 kHz
Frame rate                               : 46.875 FPS (1024 SPF)
Compression mode                         : Lossy
Stream size                              : 101 MiB (2%)
Language                                 : English
Default                                  : Yes
Alternate group                          : 1
Menus                                    : 3

Text #1
ID                                       : 1-CC1
Format                                   : EIA-608
Muxing mode                              : SCTE 128 / DTVCC Transport
Muxing mode, more info                   : Muxed in Video #1
Duration                                 : 1 h 53 min
Start time (commands)                    : 2 s 686 ms
Start time                               : 2 s 686 ms
Bit rate mode                            : Constant
Stream size                              : 0.00 Byte (0%)
Type of the first event                  : RollUp

Text #2
ID                                       : 1-1
Format                                   : EIA-708
Muxing mode                              : SCTE 128 / DTVCC Transport
Muxing mode, more info                   : Muxed in Video #1
Duration                                 : 1 h 53 min
Bit rate mode                            : Constant
Stream size                              : 0.00 Byte (0%)

Menu #1
ID                                       : 3
Format                                   : txet
Codec ID                                 : txet
Duration                                 : 51 min 57 s
Language                                 : English
Menu For                                 : 1,2

Menu #2
00:00:00.000                             : Chapter 1
00:02:02.438                             : Chapter 2
00:03:45.091                             : Chapter 3
00:03:55.451                             : Chapter 4
00:04:04.560                             : Chapter 5
00:08:13.926                             : Chapter 6
00:09:38.611                             : Chapter 7
00:17:51.887                             : Chapter 8
00:21:16.091                             : Chapter 9
00:21:24.216                             : Chapter 10
00:28:24.169                             : Chapter 11
00:51:57.964                             : Chapter 12


Category International Soccer
Rating N/A
Size 5.55 GB
Show/Hide Files
1 file