Torrent’s details
Name Winter Olympics PyeongChang 2018/02/15 Day 6 Ice Hockey Women's Prelim USA vs CAN 720p 30fps ENG | CBC
Description General
Unique ID : 264076238388972450536179934042577974581 (0xC6AB3BC767F99802AACDF0D52D7C3535)
Complete name : PyeongChang.Olympics.2018.02.15.Ice.Hockey.Womens.Prelim.USA.vs.CAN.720p.CBC.WEB-DL.AAC2.0.H.264-BTW.mkv
Format : Matroska
Format version : Version 4 / Version 2
File size : 3.89 GiB
Duration : 2h 35mn
Overall bit rate : 3 570 Kbps
Encoded date : UTC 2018-02-15 09:04:19
Writing application : mkvmerge v20.0.0 ('I Am The Sun' ) 64-bit
Writing library : libebml v1.3.5 + libmatroska v1.4.8

Video
ID : 1
Format : AVC
Format/Info : Advanced Video Codec
Format profile : Main@L3.1
Format settings, CABAC : Yes
Format settings, ReFrames : 4 frames
Codec ID : V_MPEG4/ISO/AVC
Duration : 2h 35mn
Bit rate mode : Constant
Bit rate : 3 450 Kbps
Width : 1 280 pixels
Height : 720 pixels
Display aspect ratio : 16:9
Frame rate mode : Constant
Frame rate : 29.970 (30000/1001) fps
Color space : YUV
Chroma subsampling : 4:2:0
Bit depth : 8 bits
Scan type : Progressive
Bits/(Pixel*Frame) : 0.125
Stream size : 3.75 GiB (96%)
Default : Yes
Forced : No

Audio
ID : 2
Format : AAC
Format/Info : Advanced Audio Codec
Format profile : LC
Codec ID : A_AAC
Duration : 2h 35mn
Bit rate : 125 Kbps
Channel(s) : 2 channels
Channel positions : Front: L R
Sampling rate : 48.0 KHz
Frame rate : 46.875 fps (1024 spf)
Compression mode : Lossy
Delay relative to video : 5ms
Stream size : 140 MiB (4%)
Default : Yes
Forced : No


Respect to BTW!  cool2.gif
Category Olympic games
Rating
Size 3.89 GB
Show/Hide Files
1 file