Torrent’s details
Name 2017 02 19 NBA All-Star Game 1080i.mkv
Description General
Unique ID                      : 240622540412014916685980513314615284659 (0xB5063730BC6C27ACF9B9E4D0D04353B3)
Complete name                  : Dgrin.gifownloads2017.02.19 NBA ALL Stars Week End - 66th NBA All-Star Game [rgfootball.net] 1080i.mkv
Format                         : Matroska
Format version                 : Version 4
File size                      : 11.8 GiB
Duration                       : 2 h 55 min
Overall bit rate               : 9 665 kb/s
Encoded date                   : UTC 2020-10-19 08:25:46
Writing application            : mkvmerge v51.0.0 ('I Wish'wink.gif 32-bit
Writing library                : libebml v1.4.0 + libmatroska v1.6.2

Video
ID                             : 1
Format                         : AVC
Format/Info                    : Advanced Video Codec
Format profile                 : High@L4
Format settings                : CABAC / 4 Ref Frames
Format settings, CABAC         : Yes
Format settings, Reference fra : 4 frames
Codec ID                       : V_MPEG4/ISO/AVC
Duration                       : 2 h 55 min
Bit rate                       : 9 470 kb/s
Width                          : 1 920 pixels
Height                         : 1 080 pixels
Display aspect ratio           : 16:9
Frame rate mode                : Variable
Frame rate                     : 50.000 FPS
Original frame rate            : 25.000 FPS
Standard                       : Component
Color space                    : YUV
Chroma subsampling             : 4:2:0
Bit depth                      : 8 bits
Scan type                      : Interlaced
Scan type, store method        : Separated fields
Scan order                     : Top Field First
Bits/(Pixel*Frame)             : 0.091
Stream size                    : 11.6 GiB (98%)
Default                        : Yes
Forced                         : No
Color range                    : Limited
Color primaries                : BT.709
Transfer characteristics       : BT.709
Matrix coefficients            : BT.709

Audio
ID                             : 2
Format                         : MPEG Audio
Format version                 : Version 1
Format profile                 : Layer 2
Codec ID                       : A_MPEG/L2
Codec ID/Hint                  : MP2
Duration                       : 2 h 55 min
Bit rate mode                  : Constant
Bit rate                       : 192 kb/s
Channel(s)                     : 2 channels
Sampling rate                  : 48.0 kHz
Frame rate                     : 41.667 FPS (1152 SPF)
Compression mode               : Lossy
Stream size                    : 241 MiB (2%)
Language                       : English
Default                        : Yes
Forced                         : No

Category NBA/WNBA
Rating N/A
Size 11.83 GB
Show/Hide Files
1 file