Torrent’s details
Name UEFA European Championship Qualifiers Albania vs Poland 2023 09 10 1080pEN25fps
Description General
Unique ID                                : 175844632377358515349887432559636865155 (0x844A71BE01E1613E08771C66EC796083)
Complete name                            : UEFA European Championship Qualifiers Albania - Poland 2023 09 10 1080pEN25fps.mkv
Format                                   : Matroska
Format version                           : Version 4
File size                                : 6.43 GiB
Duration                                 : 2 h 14 min
Overall bit rate                         : 6 851 kb/s
Encoded date                             : UTC 2023-09-11 00:33:23
Writing application                      : mkvmerge v73.0.0 ('25 or 6 to 4'wink.gif 64-bit
Writing library                          : libebml v1.4.4 + libmatroska v1.7.1

Video
ID                                       : 1
Format                                   : AVC
Format/Info                              : Advanced Video Codec
Format profile                           : High@L5.2
Format settings                          : CABAC / 3 Ref Frames
Format settings, CABAC                   : Yes
Format settings, Reference frames        : 3 frames
Codec ID                                 : V_MPEG4/ISO/AVC
Duration                                 : 2 h 14 min
Bit rate                                 : 6 721 kb/s
Width                                    : 1 920 pixels
Height                                   : 1 080 pixels
Display aspect ratio                     : 16:9
Frame rate mode                          : Constant
Frame rate                               : 25.000 FPS
Standard                                 : Component
Color space                              : YUV
Chroma subsampling                       : 4:2:0
Bit depth                                : 8 bits
Scan type                                : Progressive
Bits/(Pixel*Frame)                       : 0.130
Stream size                              : 6.31 GiB (98%)
Default                                  : Yes
Forced                                   : No
Color range                              : Limited

Audio
ID                                       : 2
Format                                   : AAC LC
Format/Info                              : Advanced Audio Codec Low Complexity
Codec ID                                 : A_AAC-2
Duration                                 : 2 h 14 min
Bit rate                                 : 128 kb/s
Channel(s)                               : 2 channels
Channel layout                           : L R
Sampling rate                            : 48.0 kHz
Frame rate                               : 46.875 FPS (1024 SPF)
Compression mode                         : Lossy
Stream size                              : 123 MiB (2%)
Language                                 : English
Default                                  : Yes
Forced                                   : No
Category European Soccer
Rating N/A
Size 6.43 GB
Show/Hide Files
1 file