Torrent’s details
Name NBA 2008 Playoffs WCF Spurs vs Lakers TNTHD 60fps 720p
Image
Description Video
ID                             : 2
Format                         : AVC
Format/Info                    : Advanced Video Codec
Format profile                 : High@L4.1
Format settings                : CABAC / 4 Ref Frames
Format settings, CABAC         : Yes
Format settings, Reference fra : 4 frames
Muxing mode                    : Header stripping
Codec ID                       : V_MPEG4/ISO/AVC
Duration                       : 1 h 56 min
Bit rate                       : 5 000 kb/s
Width                          : 1 280 pixels
Height                         : 720 pixels
Display aspect ratio           : 16:9
Frame rate mode                : Constant
Frame rate                     : 59.940 FPS
Color space                    : YUV
Chroma subsampling             : 4:2:0
Bit depth                      : 8 bits
Scan type                      : Progressive
Bits/(Pixel*Frame)             : 0.091
Stream size                    : 3.97 GiB (91%)
Writing library                : x264 core 59 r851M e11ef38
Default                        : Yes
Forced                         : No

Audio
ID                             : 1
Format                         : AC-3
Format/Info                    : Audio Coding 3
Commercial name                : Dolby Digital
Muxing mode                    : Header stripping
Codec ID                       : A_AC3
Duration                       : 1 h 56 min
Bit rate mode                  : Constant
Bit rate                       : 384 kb/s
Channel(s)                     : 6 channels
Channel layout                 : L R C LFE Ls Rs
Sampling rate                  : 48.0 kHz
Frame rate                     : 31.250 FPS (1536 SPF)
Compression mode               : Lossy
Stream size                    : 319 MiB (7%)
Service kind                   : Complete Main
Default                        : Yes
Forced                         : No
Category NBA/WNBA
Rating N/A
Size 20.44 GB
Show/Hide Files
5 files