Torrent’s details
Name UFC 227 2018/08/04 Dillashaw vs Garbrandt 2 Main Card 720p HDTV 50fps ENG | NOVA SPORT2
Image
Description Event: UFC 227 - Dillashaw vs. Garbrandt 2

Location: Staples Center in Los Angeles, California

Date: 2018/08/04

Main Card:

* Bantamweight -- T.J. Dillashaw vs. Cody Garbrandt
* Flyweight -- Demetrious Johnson vs. Henry Cejudo
* Featherweight -- Renato Moicano vs. Cub Swanson
* Strawweight -- J.J. Aldrich vs. Polyana Viana
* Middleweight -- Kevin Holland vs. Thiago “Marreta” Santos

__________________________


UFC.227.720p.HDTV.x264-VERUM.mkv -- 4.22 GB -- 2 h 53 min

Note: Commercials removed.




General
Complete name : UFC.227.720p.HDTV.x264-VERUM.mkv
Format : Matroska
Format version : Version 4 / Version 2
File size : 4.22 GiB
Duration : 2 h 53 min
Overall bit rate : 3 481 kb/s
Movie name : ufc227
Writing application : no_variable_data
Writing library : no_variable_data
Tool : Multi Group Release Encoder v20.0

Video
ID : 1
Format : AVC
Format/Info : Advanced Video Codec
Format profile : High@L4.1
Format settings : CABAC / 5 Ref Frames
Format settings, CABAC : Yes
Format settings, ReFrames : 5 frames
Codec ID : V_MPEG4/ISO/AVC
Duration : 2 h 53 min
Bit rate : 3 252 kb/s
Width : 1 280 pixels
Height : 720 pixels
Display aspect ratio : 16:9
Frame rate mode : Constant
Frame rate : 50.000 FPS
Color space : YUV
Chroma subsampling : 4:2:0
Bit depth : 8 bits
Scan type : Progressive
Bits/(Pixel*Frame) : 0.071
Stream size : 3.94 GiB (93%)
Writing library : x264 core 155 r2901 7d0ff22
Encoding settings : cabac=1 / ref=5 / deblock=1:0:0 /
analyse=0x3:0x113 / me=hex / subme=8 / psy=1 / psy_rd=1.00:0.00 /
mixed_ref=1 / me_range=16 / chroma_me=1 / trellis=2 / 8x8dct=1 /
cqm=0 / deadzone=21,11 / fast_pskip=1 / chroma_qp_offset=-2 /
threads=12 / lookahead_threads=2 / sliced_threads=0 / nr=0 /
decimate=1 / interlaced=0 / bluray_compat=0 / constrained_intra=0 /
bframes=3 / b_pyramid=2 / b_adapt=1 / b_bias=0 / direct=3 /
weightb=1 / open_gop=0 / weightp=2 / keyint=250 / keyint_min=25 /
scenecut=40 / intra_refresh=0 / rc_lookahead=50 / rc=crf / mbtree=1 /
crf=22.0 / qcomp=0.60 / qpmin=0 / qpmax=69 / qpstep=4 /
ip_ratio=1.40 / aq=1:1.00
Language : English
Default : Yes
Forced : No
Color range : Limited
Matrix coefficients : BT.709

Audio
ID : 2
Format : MPEG Audio
Format version : Version 1
Format profile : Layer 2
Codec ID : A_MPEG/L2
Codec ID/Hint : MP2
Duration : 2 h 53 min
Bit rate mode : Constant
Bit rate : 160 kb/s
Channel(s) : 2 channels
Sampling rate : 48.0 kHz
Compression mode : Lossy
Stream size : 199 MiB (5%)
Language : English
Default : Yes
Forced : No


Respect to VERUM! drunk.gif
Category MMA
Rating N/A
Size 4.22 GB
Show/Hide Files
1 file